<?xml version="1.0" standalone="no"?>
<!DOCTYPE svg PUBLIC "-//W3C//DTD SVG 1.1//EN" "http://www.w3.org/Graphics/SVG/1.1/DTD/svg11.dtd" >
<svg xmlns="http://www.w3.org/2000/svg">
<defs>
<font id="Libre Baskerville" horiz-adv-x="250" >
<font-face units-per-em="100" ascent="80" descent="-20" />
<glyph unicode=" " horiz-adv-x="26.882688268826882" d="" />
<glyph unicode="!" horiz-adv-x="32.643264326432643" d="M13.441344134413441 20.732073207320731 L17.161716171617172 20.732073207320752 C18.271827182718312 28.112811281128131 21.392139213921382 40.354035403540365 25.142514251425155 49.774977497749774 C29.972997299729968 61.926192619261940 31.593159315931644 66.066606660666082 31.593159315931644 71.137113711371171 C31.593159315931644 76.507650765076505 29.792979297929833 78.727872787278727 26.102610261026143 78.727872787278727 C21.362136213621397 78.727872787278727 19.321932193219368 75.397539753975366 18.391839183918364 66.786678667866795 L13.441344134413384 20.732073207320752 zM8.850885088508850 -1.920192019201920 L12.361236123612343 -1.920192019201920 C16.111611161116116 -1.920192019201920 19.201920192019202 0.960096009600989 19.201920192019202 4.680468046804663 C19.201920192019202 8.310831083108326 16.321632163216350 11.521152115211521 12.481248124812510 11.521152115211521 C8.640864086408669 11.521152115211521 5.760576057605704 8.430843084308435 5.760576057605704 4.590459045904595 C5.760576057605704 0.750075007500755 8.850885088508903 -1.920192019201920 12.361236123612343 -1.920192019201920 L8.850885088508903 -1.920192019201920 z" />
<glyph unicode="&#x22;" horiz-adv-x="36.483648364836483" d="M15.391539153915392 55.685568556855685 L18.301830183018296 55.685568556855685 C22.112211221122152 65.496549654965520 27.512751275127471 77.407740774077411 27.512751275127471 79.027902790279029 C27.512751275127471 81.158115811581183 26.102610261026143 82.568256825682568 23.912391239123963 82.568256825682568 C15.901590159015882 82.568256825682568 17.491749174917459 71.857185718571827 15.391539153915346 55.685568556855685 zM30.603060306030603 55.685568556855685 L33.513351335133507 55.685568556855685 C37.293729372937264 65.496549654965520 42.694269426942697 77.407740774077411 42.694269426942697 79.027902790279029 C42.694269426942697 81.158115811581183 41.314131413141354 82.568256825682568 39.093909390939075 82.568256825682568 C31.113111311131092 82.568256825682568 32.703270327032669 71.857185718571827 30.603060306030557 55.685568556855685 z" />
<glyph unicode="#" horiz-adv-x="67.206720672067206" d="M61.206120612061206 25.262526252625264 L61.986198619861966 30.723072307230723 L48.304830483048363 30.723072307230723 L50.585058505850611 48.004800480048004 L64.086408640864079 48.004800480048004 L64.896489648964916 53.465346534653463 L51.485148514851517 53.465346534653463 L54.905490549054889 76.807680768076807 L48.904890489048853 76.807680768076807 L45.514551455145465 53.465346534653463 L30.393039303930436 53.465346534653463 L33.903390339033876 76.807680768076807 L27.902790279027954 76.807680768076807 L24.392439243924400 53.465346534653463 L9.990999099910027 53.465346534653463 L9.210921092109174 48.004800480048004 L23.492349234923495 48.004800480048004 L21.092109210921080 30.723072307230723 L6.900690069006942 30.723072307230723 L6.090609060906104 25.262526252625264 L20.102010201020107 25.262526252625264 L16.291629162916252 0.000000000000000 L22.292229222922288 0.000000000000000 L26.102610261026143 25.262526252625264 L41.194119411941188 25.262526252625264 L37.713771377137732 0.000000000000000 L43.594359435943602 0.000000000000000 L47.314731473147276 25.262526252625264 L61.206120612061227 25.262526252625264 zM29.492949294929492 48.004800480048004 L44.494449444944507 48.004800480048004 L42.214221422142259 30.723072307230723 L27.092709270927116 30.723072307230723 L29.492949294929531 48.004800480048004 z" />
<glyph unicode="$" horiz-adv-x="57.605760576057605" d="M17.671767176717672 -0.900090009000898 L14.311431143114305 -15.361536153615361 L19.921992199219972 -15.361536153615361 L23.132313231323110 -1.620162016201618 L23.552355235523578 -1.620162016201618 C38.973897389739022 -1.620162016201618 51.845184518451788 9.360936093609382 51.845184518451788 22.412241224122397 C51.845184518451788 33.993399339934001 42.904290429042931 39.963996399639939 35.043504350435001 45.394539453945413 L42.094209420942093 71.977197719771993 C47.164716471647125 71.077107710771088 49.924992499249925 68.376837683768372 49.924992499249925 64.386438643864381 C49.924992499249925 60.366036603660348 47.104710471047156 56.765676567656783 43.444344434443451 55.865586558655878 C44.374437443744341 54.365436543654369 45.634563456345631 53.765376537653765 48.184818481848197 53.765376537653765 C53.735373537353780 53.765376537653765 57.605760576057605 57.665766576657688 57.605760576057605 63.486348634863475 C57.605760576057605 70.387038703870417 51.755175517551720 75.577557755775558 42.994299429942998 76.987698769876999 L45.364536453645314 86.408640864086408 L39.333933393339294 86.408640864086408 L37.143714371437113 77.407740774077411 C23.702370237023729 76.987698769876943 13.441344134413384 68.076807680768070 13.441344134413384 56.765676567656783 C13.441344134413384 47.494749474947525 20.042004200420024 41.854185418541874 26.912691269126867 36.633663366336634 L18.931893189318885 3.840384038403840 C13.051305130513015 5.340534053405349 9.600960096009658 9.090909090909065 9.600960096009658 14.431443144314414 C9.600960096009658 19.051905190519051 12.511251125112494 23.102310231023125 16.981698169817037 24.602460246024577 C15.631563156315678 26.132613261326128 13.711371137113701 27.032703270327033 11.431143114311453 27.032703270327033 C6.420642064206390 27.032703270327033 1.920192019201977 21.392139213921382 1.920192019201977 15.241524152415252 C1.920192019201977 7.710771077107722 8.700870087008752 1.140114011401124 17.671767176717708 -0.900090009000905 zM42.244224422442244 24.002400240024002 L42.244224422442244 17.551755175517542 C42.244224422442244 9.750975097509752 34.623462346234646 3.840384038403840 24.512451245124566 3.840384038403840 L31.923192319231930 32.883288328832862 C37.563756375637581 28.532853285328542 42.244224422442244 24.002400240024031 42.244224422442244 17.551755175517542 L42.244224422442244 24.002400240024031 zM23.042304230423042 55.835583558355836 L23.042304230423042 60.666066606660650 C23.042304230423042 66.966696669666931 28.142814281428173 71.407140714071431 35.763576357635770 72.097209720972103 L30.033003300330051 49.114911491149087 C25.952595259525992 52.415241524152407 23.042304230423042 55.835583558355836 23.042304230423042 60.666066606660650 L23.042304230423042 55.835583558355836 z" />
<glyph unicode="%" horiz-adv-x="69.126912691269126" d="M7.710771077107712 0.000000000000000 L69.876987698769881 76.807680768076807 L64.086408640864079 76.807680768076807 L1.020102010201072 0.000000000000000 L7.710771077107665 0.000000000000000 zM15.361536153615361 46.084608460846084 L20.522052205220575 46.084608460846084 C28.082808280828090 46.084608460846084 36.483648364836426 57.155715571557153 36.483648364836426 67.236723672367248 C36.483648364836426 73.147314731473159 32.973297329732986 77.107710771077109 27.752775277527803 77.107710771077109 C19.951995199519956 77.107710771077109 11.821182118211823 66.636663666366644 11.821182118211823 56.465646564656481 C11.821182118211823 50.255025502550268 15.361536153615361 46.084608460846084 20.522052205220575 46.084608460846084 L15.361536153615361 46.084608460846084 zM22.652265226522651 74.887488748874887 L27.332733273327335 74.887488748874887 C29.672967296729666 74.887488748874887 30.993099309931040 72.967296729672967 30.993099309931040 69.636963696369662 C30.993099309931040 59.585958595859609 25.832583258325826 48.304830483048306 21.152115211521163 48.304830483048306 C18.721872187218764 48.304830483048306 17.281728172817338 50.315031503150294 17.281728172817338 53.855385538553833 C17.281728172817338 63.726372637263694 22.652265226522672 74.887488748874887 27.332733273327335 74.887488748874887 L22.652265226522672 74.887488748874887 zM40.024002400240022 -0.300030003000302 L45.184518451845179 -0.300030003000302 C52.775277527752792 -0.300030003000302 61.176117611761129 10.771077107710767 61.176117611761129 20.852085208520862 C61.176117611761129 26.762676267626773 57.665766576657688 30.723072307230723 52.415241524152407 30.723072307230723 C44.614461446144560 30.723072307230723 36.483648364836426 20.252025202520258 36.483648364836426 10.081008100810095 C36.483648364836426 3.870387038703882 40.024002400240079 -0.300030003000302 45.184518451845179 -0.300030003000302 L40.024002400240079 -0.300030003000302 zM47.344734473447346 28.502850285028501 L52.025202520252037 28.502850285028501 C54.365436543654369 28.502850285028501 55.685568556855742 26.582658265826581 55.685568556855742 23.252325232523276 C55.685568556855628 13.201320132013223 50.495049504950543 1.920192019201920 45.814581458145767 1.920192019201920 C43.384338433843368 1.920192019201920 41.944194419441942 3.930393039303908 41.944194419441942 7.470747074707447 C41.944194419441942 17.341734173417365 47.344734473447375 28.502850285028501 52.025202520252037 28.502850285028501 L47.344734473447375 28.502850285028501 z" />
<glyph unicode="&#x26;" horiz-adv-x="90.249024902490248" d="M47.914791479147915 78.727872787278727 L39.273927392739324 78.727872787278727 C28.622862286228610 78.727872787278727 21.122112211221179 71.497149714971499 21.122112211221065 61.086108610861061 C21.122112211221065 57.665766576657688 21.782178217821752 53.405340534053380 22.742274227422740 51.065106510651049 C12.301230123012260 48.544854485448525 5.760576057605704 39.873987398739871 5.760576057605704 28.562856285628584 C5.760576057605704 11.221122112211219 21.182118211821148 -1.920192019201920 41.494149414941489 -1.920192019201920 C61.236123612361212 -1.920192019201920 76.807680768076807 11.971197119711974 76.807680768076807 29.432943294329448 C76.807680768076807 35.913591359135921 74.497449744974460 41.794179417941791 71.137113711371171 43.834383438343821 L71.317131713171307 44.164416441644164 C82.388238823882375 44.164416441644164 90.249024902490191 51.305130513051324 90.249024902490191 61.086108610861061 C90.249024902490191 69.036903690369058 84.218421842184171 74.887488748874887 76.027602760276068 74.887488748874887 C70.627062706270635 74.887488748874887 67.206720672067149 72.577257725772597 67.206720672067149 68.916891689168892 C67.206720672067149 65.436543654365437 69.006900690068960 63.366336633663366 72.007200720071978 63.366336633663366 C78.577857785778633 63.366336633663366 74.407440744074393 69.426942694269428 79.087908790879055 69.426942694269428 C81.878187818781839 69.426942694269428 84.488448844884488 66.726672667266712 84.488448844884488 63.786378637863777 C84.488448844884488 57.695769576957673 79.387938793879357 53.765376537653765 71.557155715571525 53.765376537653765 L61.266126612661310 53.765376537653765 C50.075007500750075 53.765376537653765 42.244224422442244 47.404740474047401 42.244224422442244 38.313831383138336 C42.244224422442244 30.603060306030613 47.134713471347141 24.962496249624962 53.765376537653765 24.962496249624962 C59.075907590759016 24.962496249624962 63.366336633663423 29.072907290729063 63.366336633663423 34.053405340534027 C63.366336633663423 37.503750375037498 60.876087608760827 40.324032403240324 57.815781578157839 40.324032403240324 C55.415541554155425 40.324032403240324 53.765376537653765 38.613861386138637 53.765376537653765 36.273627362736249 C53.765376537653765 35.373537353735401 53.765376537653765 34.053405340534027 53.765376537653765 33.153315331533122 C53.765376537653765 31.533153315331560 53.585358535853629 30.723072307230723 53.255325532553229 30.723072307230723 C50.165016501650143 30.723072307230723 47.704770477047759 33.843384338433850 47.704770477047759 37.893789378937868 C47.704770477047759 42.814281428142806 51.545154515451486 46.084608460846084 57.245724572457220 46.084608460846084 C65.046504650465067 46.084608460846084 71.047104710471103 39.903990399039913 71.047104710471103 31.923192319231930 C71.047104710471103 18.841884188418817 58.925892589258865 7.680768076807681 44.584458445844575 7.680768076807681 C28.322832283228308 7.680768076807681 15.361536153615361 19.321932193219311 15.361536153615361 34.053405340534027 C15.361536153615361 40.924092409240927 18.511851185118530 46.084608460846084 22.652265226522672 46.084608460846084 C27.662766276627622 46.084608460846084 28.382838283828391 40.504050405040516 33.993399339933944 40.504050405040516 C37.173717371737212 40.504050405040516 39.063906390639090 41.854185418541874 39.063906390639090 44.164416441644164 C39.063906390639090 47.344734473447375 37.383738373837332 48.694869486948676 30.483048304830504 50.855085508550872 C28.142814281428173 51.575157515751584 26.882688268826882 53.855385538553833 26.882688268826882 57.245724572457220 C26.882688268826882 64.236423642364230 31.533153315331560 69.126912691269126 38.013801380138034 69.126912691269126 C43.384338433843368 69.126912691269126 48.004800480048061 65.736573657365739 50.375037503750377 60.306030603060321 C52.415241524152407 60.756075607560774 53.765376537653765 63.366336633663366 53.765376537653765 66.846684668466878 C53.765376537653765 73.897389738973914 47.914791479147880 78.727872787278727 39.273927392739324 78.727872787278727 L47.914791479147880 78.727872787278727 z" />
<glyph unicode="'" horiz-adv-x="21.122112211221122" d="M15.391539153915392 55.685568556855685 L18.301830183018296 55.685568556855685 C22.112211221122152 65.496549654965520 27.512751275127471 77.407740774077411 27.512751275127471 79.027902790279029 C27.512751275127471 81.158115811581183 26.102610261026143 82.568256825682568 23.912391239123963 82.568256825682568 C15.901590159015882 82.568256825682568 17.491749174917459 71.857185718571827 15.391539153915346 55.685568556855685 z" />
<glyph unicode="(" horiz-adv-x="34.563456345634563" d="M45.544554455445542 79.777977797779783 L43.144314431443149 82.568256825682568 C17.851785178517844 62.916291629162913 3.840384038403840 39.783978397839803 3.840384038403840 16.651665166516636 C3.840384038403840 3.930393039303908 8.340834083408367 -8.190819081908217 17.251725172517240 -19.201920192019202 L21.032103210320997 -16.411641164116418 C15.841584158415799 -8.370837083708352 13.441344134413384 0.060006000600083 13.441344134413384 10.081008100810095 C13.441344134413498 38.283828382838294 23.132313231323110 57.245724572457220 45.544554455445564 79.777977797779783 z" />
<glyph unicode=")" horiz-adv-x="32.643264326432643" d="M19.831983198319833 83.288328832883280 L15.931593159315980 80.498049804980496 C20.732073207320695 70.297029702970292 23.042304230423042 62.496249624962502 23.042304230423042 53.885388538853874 C23.042304230423042 26.972697269726950 7.830783078307832 -0.510051005100536 -10.861086108610834 -16.411641164116418 L-8.550855085508601 -19.201920192019202 C16.351635163516335 0.600060006000604 30.723072307230723 24.692469246924702 30.723072307230723 48.394839483948374 C30.723072307230723 60.696069606960691 27.122712271227101 72.487248724872472 19.831983198319790 83.288328832883280 z" />
<glyph unicode="*" horiz-adv-x="53.765376537653765" d="M32.643264326432643 49.894989498949897 L34.053405340534027 54.905490549054889 C36.693669366936660 52.205220522052173 39.153915391539158 48.004800480048004 39.663966396639694 45.904590459045892 C40.174017401740230 43.714371437143711 41.194119411941188 40.324032403240324 44.854485448544892 40.324032403240324 C47.254725472547307 40.324032403240324 49.474947494749472 41.824182418241833 49.474947494749472 44.824482448244794 C49.474947494749472 50.015001500149992 42.604260426042629 49.414941494149389 36.333633363336276 55.685568556855685 C38.823882388238871 55.685568556855685 41.224122412241172 55.685568556855685 42.904290429042931 55.685568556855685 C46.534653465346537 55.685568556855685 48.334833483348348 55.685568556855685 50.465046504650445 55.685568556855685 C53.645364536453599 55.685568556855685 55.055505550555040 57.605760576057605 55.055505550555040 59.075907590759073 C55.055505550555040 61.266126612661253 52.955295529552927 63.366336633663366 50.675067506750679 63.366336633663366 C47.584758475847593 63.366336633663366 45.454545454545496 59.735973597359703 35.703570357035687 57.995799579957975 C38.733873387338690 66.396639663966425 44.164416441644107 69.576957695769579 44.164416441644107 73.387338733873378 C44.164416441644107 74.977497749775011 42.184218421842161 76.807680768076807 39.243924392439226 76.807680768076807 C36.543654365436510 76.807680768076807 34.563456345634563 74.947494749474913 34.563456345634563 71.737173717371718 C34.563456345634563 68.376837683768372 34.563456345634563 64.536453645364531 33.213321332133205 59.315931593159291 C26.642664266426664 67.806780678067810 28.112811281128074 74.887488748874887 22.742274227422740 74.887488748874887 C20.432043204320394 74.887488748874887 18.031803180317979 73.597359735973612 18.031803180317979 70.177017701770183 C18.031803180317979 65.256525652565244 23.192319231923193 67.176717671767165 31.053105310531009 58.505850585058511 C28.742874287428776 57.905790579057907 26.642664266426664 57.605760576057605 25.172517251725139 57.605760576057605 C21.632163216321601 57.605760576057605 19.291929192919270 59.525952595259525 16.951695169516938 59.525952595259525 C13.831383138313868 59.525952595259525 12.031203120312057 57.335733573357345 12.031203120312057 55.055505550555040 C12.031203120312057 52.445244524452448 14.041404140413988 49.924992499249925 16.531653165316584 49.924992499249925 C19.741974197419722 49.924992499249925 20.342034203420326 53.675367536753697 31.593159315931644 55.655565556555644 C29.162916291629131 49.954995499549966 28.112811281128074 48.604860486048608 26.102610261026143 46.744674467446771 C23.792379237923797 44.584458445844575 23.042304230423042 43.804380438043836 23.042304230423042 42.124212421242134 C23.042304230423042 39.303930393039309 24.512451245124566 36.483648364836483 27.902790279027954 36.483648364836483 C31.143114311431191 36.483648364836483 32.643264326432586 38.973897389738966 32.643264326432700 43.414341434143410 C32.643264326432700 47.224722472247208 32.643264326432700 49.894989498949883 34.053405340534027 54.905490549054889 L32.643264326432700 49.894989498949883 z" />
<glyph unicode="+" horiz-adv-x="57.605760576057605" d="M26.882688268826882 9.600960096009601 L32.343234323432398 9.600960096009601 L32.343234323432398 31.023102310231025 L53.135313531353177 31.023102310231025 L53.135313531353177 36.483648364836483 L32.343234323432398 36.483648364836483 L32.343234323432398 57.605760576057605 L26.882688268826882 57.605760576057605 L26.882688268826882 36.483648364836483 L6.090609060906104 36.483648364836483 L6.090609060906104 31.023102310231025 L26.882688268826882 31.023102310231025 L26.882688268826882 9.600960096009601 z" />
<glyph unicode="," horiz-adv-x="26.882688268826882" d="M6.120612061206121 0.090009000900089 L6.900690069006942 0.300030003000302 C6.900690069006942 -3.540354035403539 3.090309030903086 -9.180918091809190 -3.810381038103856 -14.131413141314113 L-1.500150015001509 -17.281728172817338 C8.130813081308133 -10.141014101410121 13.441344134413384 -1.410141014101384 13.441344134413384 5.910591059105911 C13.441344134413384 9.690969096909669 10.561056105610533 12.991299129912989 6.630663066306624 12.991299129912989 C2.880288028802852 12.991299129912989 0.000000000000000 9.780978097809793 0.000000000000000 5.790579057905802 C0.000000000000000 2.400240024002414 1.620162016201675 0.000000000000000 4.890489048904897 0.000000000000000 C5.460546054605402 0.000000000000000 6.120612061206089 0.090009000900068 6.900690069006942 0.300030003000302 L6.120612061206089 0.090009000900068 z" />
<glyph unicode="-" horiz-adv-x="46.084608460846084" d="M6.000600060006001 24.962496249624962 L36.903690369036894 24.962496249624962 L39.213921392139241 32.643264326432643 L8.310831083108269 32.643264326432643 L6.000600060006036 24.962496249624962 z" />
<glyph unicode="." horiz-adv-x="26.882688268826882" d="M3.060306030603059 -1.920192019201920 L6.630663066306624 -1.920192019201920 C10.381038103810397 -1.920192019201920 13.441344134413384 0.960096009600989 13.441344134413384 4.710471047104704 C13.441344134413384 8.340834083408367 10.561056105610533 11.521152115211521 6.630663066306624 11.521152115211521 C2.880288028802852 11.521152115211521 0.000000000000000 8.460846084608477 0.000000000000000 4.620462046204636 C0.000000000000000 0.780078007800796 3.060306030603101 -1.920192019201920 6.630663066306624 -1.920192019201920 L3.060306030603101 -1.920192019201920 z" />
<glyph unicode="/" horiz-adv-x="38.403840384038403" d="M3.990399039903991 0.000000000000000 L45.694569456945715 76.807680768076807 L39.513951395139543 76.807680768076807 L-2.910291029102950 0.000000000000000 L3.990399039903991 0.000000000000000 z" />
<glyph unicode="0" horiz-adv-x="65.286528652865286" d="M15.331533153315331 -1.620162016201618 L26.672667266726648 -1.620162016201618 C44.074407440744039 -1.620162016201618 63.366336633663309 26.792679267926815 63.366336633663423 52.475247524752490 C63.366336633663423 68.046804680468028 55.655565556555644 78.427842784278425 44.104410441044138 78.427842784278425 C26.282628262826279 78.427842784278425 7.680768076807681 51.485148514851517 7.680768076807681 25.532553255325524 C7.680768076807681 9.330933093309341 15.331533153315377 -1.620162016201618 26.672667266726648 -1.620162016201618 L15.331533153315377 -1.620162016201618 zM31.983198319831985 72.967296729672967 L43.114311431143165 72.967296729672967 C48.754875487548702 72.967296729672967 51.845184518451788 68.226822682268221 51.845184518451788 59.855985598559869 C51.845184518451788 33.513351335133507 39.333933393339294 3.840384038403840 28.202820282028256 3.840384038403840 C22.502250225022522 3.840384038403840 19.201920192019202 8.880888088808888 19.201920192019202 17.551755175517542 C19.201920192019202 43.384338433843368 31.983198319832013 72.967296729672967 43.114311431143165 72.967296729672967 L31.983198319832013 72.967296729672967 z" />
<glyph unicode="1" horiz-adv-x="48.004800480048004" d="M29.702970297029701 26.852685268526852 L42.604260426042629 78.727872787278727 L38.913891389138939 78.727872787278727 C31.713171317131696 70.807080708070771 23.612361236123661 63.666366636663668 12.091209120912140 63.666366636663668 L11.491149114911536 59.525952595259525 C19.201920192019202 59.525952595259525 23.912391239123963 61.146114611461144 26.102610261026143 61.146114611461144 C27.212721272127169 61.146114611461144 27.602760276027652 60.846084608460842 27.602760276027652 59.825982598259827 C27.602760276027652 59.435943594359458 27.512751275127471 58.835883588358854 27.392739273927418 58.235823582358250 L17.191719171917157 17.701770177017693 C14.491449144914441 6.840684068406858 9.990999099910027 3.990399039903991 0.690069006900671 3.990399039903991 L-0.390039003900370 0.000000000000000 L36.603660366036593 0.000000000000000 L37.713771377137732 3.990399039903991 C29.492949294929531 3.990399039903991 27.002700270027049 7.350735073507337 27.002700270027049 12.571257125712577 C27.002700270027049 16.531653165316527 28.412841284128376 21.482148214821507 29.702970297029651 26.852685268526841 z" />
<glyph unicode="2" horiz-adv-x="63.366336633663366" d="M15.901590159015901 9.810981098109810 L15.901590159015882 10.321032103210314 C47.314731473147276 32.253225322532273 59.525952595259469 46.174617461746152 59.525952595259469 59.795979597959786 C59.525952595259469 71.047104710471046 51.005100510050966 78.427842784278425 38.193819381938169 78.427842784278425 C23.492349234923495 78.427842784278425 11.521152115211521 68.706870687068715 11.521152115211521 56.675667566756658 C11.521152115211521 49.264926492649238 15.721572157215746 44.164416441644164 21.962196219622001 44.164416441644164 C26.342634263426362 44.164416441644164 29.852985298529802 46.234623462346235 31.143114311431191 49.624962496249623 C24.752475247524785 49.624962496249623 21.122112211221065 53.165316531653161 21.122112211221065 59.195919591959182 C21.122112211221179 66.726672667266712 27.632763276327637 72.967296729672967 35.943594359435906 72.967296729672967 C43.414341434143466 72.967296729672967 48.004800480048061 67.836783678367851 48.004800480048061 60.096009600960087 C48.004800480047948 46.174617461746152 35.913591359135921 31.953195319531972 1.650165016501660 5.310531053105308 L0.720072007200770 0.000000000000000 L48.304830483048363 0.000000000000000 L54.455445544554436 17.281728172817282 L50.825082508250830 17.281728172817282 C46.954695469547005 11.491149114911480 43.834383438343821 9.810981098109835 37.023702370237061 9.810981098109835 L15.901590159015882 9.810981098109835 z" />
<glyph unicode="3" horiz-adv-x="61.446144614461446" d="M40.324032403240324 31.233123312331234 L40.324032403240381 22.442244224422438 C40.324032403240267 11.311131113111287 33.873387338733892 3.840384038403840 24.212421242124265 3.840384038403840 C16.141614161416101 3.840384038403840 11.521152115211521 7.410741074107420 11.521152115211521 13.501350135013524 C11.521152115211521 19.621962196219613 16.201620162016184 24.662466246624660 21.692169216921684 24.662466246624660 C21.152115211521163 27.122712271227101 18.151815181518145 28.802880288028803 14.371437143714388 28.802880288028803 C7.590759075907613 28.802880288028803 1.920192019201977 22.292229222922288 1.920192019201977 14.671467146714690 C1.920192019201977 5.010501050105006 10.621062106210616 -1.620162016201618 23.372337233723329 -1.620162016201618 C39.033903390338992 -1.620162016201618 51.845184518451788 9.930993099309944 51.845184518451788 24.122412241224140 C51.845184518451788 32.553255325532575 46.624662466246605 39.033903390339049 37.803780378037800 41.404140414041422 L37.803780378037800 42.004200420042025 C47.794779477947827 44.284428442844273 55.685568556855742 53.525352535253546 55.685568556855742 62.736273627362721 C55.685568556855742 72.307230723072280 48.304830483048363 78.427842784278425 36.783678367836728 78.427842784278425 C24.512451245124566 78.427842784278425 15.361536153615361 71.317131713171307 15.361536153615361 61.746174617461747 C15.361536153615361 56.195619561956164 18.961896189618983 52.535253525352516 24.332433243324317 52.535253525352516 C27.242724272427267 52.535253525352516 29.792979297929833 54.005400540053984 30.723072307230723 56.285628562856289 C27.092709270927116 56.285628562856289 24.962496249624905 58.655865586558662 24.962496249625019 62.736273627362721 C24.962496249625019 68.706870687068715 29.522952295229516 72.967296729672967 36.033603360335974 72.967296729672967 C41.644164416441640 72.967296729672967 44.164416441644107 69.486948694869511 44.164416441644107 61.956195619561981 C44.164416441644107 38.733873387338747 19.201920192019202 45.694569456945715 19.201920192019202 39.033903390339049 C19.201920192019202 37.743774377437717 20.252025202520258 37.053705370537045 22.232223222322204 37.053705370537045 C24.362436243624416 37.053705370537045 27.662766276627622 37.833783378337841 29.882988298829900 37.833783378337841 C35.853585358535838 37.833783378337841 40.324032403240381 31.233123312331259 40.324032403240381 22.442244224422438 L40.324032403240381 31.233123312331259 z" />
<glyph unicode="4" horiz-adv-x="57.605760576057605" d="M42.394239423942395 34.563456345634563 L53.495349534953448 78.727872787278727 L49.084908490849102 78.727872787278727 L2.610261026102648 33.933393339333918 L1.290129012901275 28.802880288028803 L30.813081308130791 28.802880288028803 L23.612361236123661 0.000000000000000 L33.993399339933944 0.000000000000000 L40.894089408940886 28.802880288028803 L53.195319531953146 28.802880288028803 L54.695469546954655 34.563456345634563 L42.394239423942395 34.563456345634563 zM32.493249324932492 34.563456345634563 L11.701170117011657 34.563456345634563 L39.393939393939377 60.876087608760884 L39.693969396939679 60.756075607560774 L32.493249324932549 34.563456345634563 z" />
<glyph unicode="5" horiz-adv-x="61.446144614461446" d="M45.814581458145817 49.624962496249623 L32.523252325232534 49.624962496249623 C29.042904290429078 49.624962496249623 24.092409240924098 48.844884488448827 22.292229222922288 47.974797479747963 L21.902190219021918 48.544854485448525 L28.562856285628527 66.996699669967029 C32.733273327332768 66.036603660366040 38.493849384938471 65.286528652865286 42.364236423642410 65.286528652865286 C51.035103510351064 65.286528652865286 56.735673567356685 69.696969696969688 59.495949594959484 78.727872787278727 L58.895889588958880 78.727872787278727 C55.565556555655576 76.297629762976271 49.654965496549607 74.887488748874887 42.484248424842463 74.887488748874887 C35.433543354335484 74.887488748874887 29.462946294629432 76.387638763876396 26.282628262826279 78.727872787278727 L13.861386138613852 41.374137413741380 C13.741374137413686 41.074107410741078 13.651365136513618 40.474047404740475 13.651365136513618 40.054005400540063 C13.651365136513618 39.093909390939075 14.341434143414290 38.403840384038403 15.121512151215143 38.403840384038403 C17.611761176117625 38.403840384038403 20.702070207020711 44.164416441644164 30.243024302430285 44.164416441644164 C39.393939393939377 44.164416441644164 44.164416441644107 38.673867386738664 44.164416441644107 28.412841284128433 C44.164416441644107 14.161416141614154 36.123612361236155 3.840384038403840 25.082508250825072 3.840384038403840 C18.031803180317979 3.840384038403840 13.441344134413384 8.040804080408066 13.441344134413384 14.671467146714690 C13.441344134413384 20.342034203420326 16.711671167116720 24.662466246624660 21.002100210021013 24.662466246624660 C20.492049204920477 27.002700270026992 17.701770177017693 28.802880288028803 14.521452145214539 28.802880288028803 C8.670867086708654 28.802880288028803 3.840384038403840 22.502250225022522 3.840384038403840 15.091509150915101 C3.840384038403840 5.010501050105006 12.061206120612042 -1.620162016201618 24.482448244824468 -1.620162016201618 C41.674167416741625 -1.620162016201618 55.685568556855628 11.371137113711370 55.685568556855742 27.302730273027294 C55.685568556855742 40.204020402040214 45.814581458145767 49.624962496249623 32.523252325232534 49.624962496249623 L45.814581458145767 49.624962496249623 z" />
<glyph unicode="6" horiz-adv-x="63.366336633663366" d="M55.685568556855685 13.231323132313232 L55.685568556855742 28.682868286828693 C55.685568556855742 41.194119411941188 47.434743474347442 49.624962496249623 35.133513351335182 49.624962496249623 C30.213021302130187 49.624962496249623 25.802580258025841 48.184818481848197 21.392139213921382 45.154515451545137 L21.092109210921080 45.334533453345330 C25.472547254725441 61.536153615361513 36.153615361536140 72.967296729672967 46.804680468046854 72.967296729672967 C50.705070507050664 72.967296729672967 51.845184518451788 70.927092709270937 51.845184518451788 66.756675667566753 C51.845184518451788 63.186318631863173 53.915391539153916 61.446144614461446 56.645664566456617 61.446144614461446 C59.585958595859552 61.446144614461446 61.446144614461446 63.666366636663668 61.446144614461446 66.966696669666931 C61.446144614461446 73.657365736573638 55.145514551455108 78.727872787278727 46.804680468046854 78.727872787278727 C26.612661266126565 78.727872787278727 7.680768076807681 53.915391539153916 7.680768076807681 27.302730273027294 C7.680768076807681 10.351035103510355 15.691569156915648 -0.300030003000302 28.502850285028444 -0.300030003000302 C42.934293429342915 -0.300030003000302 55.685568556855628 13.231323132313207 55.685568556855742 28.682868286828693 L55.685568556855742 13.231323132313207 zM23.702370237023700 44.164416441644164 L33.333333333333371 44.164416441644164 C40.444044404440433 44.164416441644164 44.164416441644107 38.973897389738966 44.164416441644107 28.802880288028803 C44.164416441644107 14.731473147314716 37.143714371437113 3.840384038403840 27.902790279027954 3.840384038403840 C21.002100210021013 3.840384038403840 17.281728172817225 9.720972097209710 17.281728172817338 20.522052205220518 C17.281728172817338 34.683468346834673 23.702370237023729 44.164416441644164 33.333333333333371 44.164416441644164 L23.702370237023729 44.164416441644164 z" />
<glyph unicode="7" horiz-adv-x="51.845184518451845" d="M31.293129312931292 67.806780678067810 L49.894989498949940 67.806780678067810 L21.812181218121850 27.392739273927418 C8.310831083108269 7.980798079807983 6.210621062106156 4.860486048604855 6.210621062106156 2.220222022202222 C6.210621062106156 -0.300030003000302 8.190819081908217 -1.920192019201920 11.011101110110985 -1.920192019201920 C14.911491149114909 -1.920192019201920 17.791779177917761 1.200120012001207 24.212421242124265 12.811281128112796 C41.314131413141354 43.714371437143711 51.605160516051569 63.066306630663064 59.585958595859552 74.797479747974762 L59.885988598859853 76.807680768076807 L29.612961296129583 76.807680768076807 C24.302430243024332 76.807680768076807 22.292229222922288 77.677767776777671 22.292229222922288 79.807980798079825 C22.292229222922288 80.228022802280236 22.412241224122454 80.348034803480346 22.412241224122454 80.648064806480647 L19.411941194119436 80.648064806480647 L10.111011101110080 56.585658565856590 L14.401440144014373 56.585658565856590 L16.501650165016486 60.516051605160499 C20.012001200120039 67.206720672067206 21.602160216021616 67.806780678067810 31.293129312931342 67.806780678067810 z" />
<glyph unicode="8" horiz-adv-x="63.366336633663366" d="M50.195019501950192 37.233723372337231 L41.824182418241776 42.784278427842764 C51.785178517851818 44.704470447044685 59.525952595259469 52.985298529852969 59.525952595259469 61.956195619561981 C59.525952595259469 71.377137713771390 50.795079507950845 78.427842784278425 39.393939393939377 78.427842784278425 C26.492649264926513 78.427842784278425 15.361536153615361 69.156915691569168 15.361536153615361 57.725772577257715 C15.361536153615361 51.155115511551173 18.871887188718915 44.914491449144919 25.262526252625321 40.264026402640241 C10.891089108910933 36.243624362436265 3.840384038403840 28.862886288628886 3.840384038403840 17.881788178817885 C3.840384038403840 5.700570057005677 12.421242124212426 -1.620162016201618 26.582658265826581 -1.620162016201618 C42.394239423942395 -1.620162016201618 53.765376537653765 8.220822082208201 53.765376537653765 21.902190219021918 C53.765376537653765 30.063006300630036 50.195019501950242 37.233723372337238 41.824182418241776 42.784278427842764 L50.195019501950242 37.233723372337238 zM29.012901290129012 38.163816381638163 L34.293429342934246 34.743474347434756 C40.804080408040818 30.273027302730270 44.164416441644107 25.442544254425457 44.164416441644107 18.871887188718858 C44.164416441644107 10.081008100810095 37.143714371437113 3.840384038403840 27.182718271827184 3.840384038403840 C18.151815181518145 3.840384038403840 13.441344134413384 8.490849084908518 13.441344134413384 17.161716171617172 C13.441344134413384 26.762676267626773 18.571857185718613 33.723372337233741 29.012901290128980 38.163816381638185 zM37.953795379537951 44.914491449144911 L33.783378337833824 47.524752475247510 C27.902790279027954 51.365136513651350 24.962496249624905 56.615661566156632 24.962496249625019 61.146114611461144 C24.962496249625019 68.106810681068112 30.963096309630942 72.967296729672967 38.583858385838539 72.967296729672967 C45.784578457845782 72.967296729672967 49.924992499249925 68.136813681368153 49.924992499249925 61.566156615661555 C49.924992499249925 54.605460546054587 45.664566456645616 49.264926492649238 37.953795379537951 44.914491449144919 z" />
<glyph unicode="9" horiz-adv-x="63.366336633663366" d="M11.521152115211521 64.566456645664573 L11.521152115211521 50.165016501650143 C11.521152115211521 37.563756375637581 19.771977197719821 29.102910291029104 32.073207320732081 29.102910291029104 C36.993699369936962 29.102910291029104 41.404140414041422 30.543054305430530 45.814581458145767 33.573357335733590 L46.114611461146069 33.363336333633356 C41.734173417341708 16.051605160516033 31.053105310531009 3.840384038403840 20.402040204020409 3.840384038403840 C16.501650165016486 3.840384038403840 15.361536153615361 6.210621062106213 15.361536153615361 11.071107110711068 C15.361536153615361 15.241524152415252 13.291329132913233 17.281728172817282 10.561056105610533 17.281728172817282 C7.620762076207598 17.281728172817282 5.760576057605704 14.671467146714690 5.760576057605704 10.831083108310850 C5.760576057605704 4.650465046504678 12.061206120612042 0.000000000000000 20.402040204020409 0.000000000000000 C40.594059405940584 0.000000000000000 59.525952595259469 24.152415241524182 59.525952595259469 50.075007500750075 C59.525952595259469 66.666666666666686 51.515151515151501 77.107710771077109 38.703870387038705 77.107710771077109 C24.272427242724234 77.107710771077109 11.521152115211521 64.566456645664573 11.521152115211521 50.165016501650143 L11.521152115211521 64.566456645664573 zM43.504350435043506 34.563456345634563 L33.873387338733892 34.563456345634563 C26.762676267626716 34.563456345634563 23.042304230423042 39.633963396339652 23.042304230423042 49.564956495649540 C23.042304230423042 62.736273627362721 30.063006300630036 72.967296729672967 39.303930393039309 72.967296729672967 C46.204620462046250 72.967296729672967 49.924992499249925 67.206720672067206 49.924992499249925 56.675667566756658 C49.924992499249925 43.414341434143410 43.504350435043534 34.563456345634563 33.873387338733892 34.563456345634563 L43.504350435043534 34.563456345634563 z" />
<glyph unicode=":" horiz-adv-x="30.723072307230723" d="M4.980498049804979 -1.920192019201920 L8.550855085508601 -1.920192019201920 C12.301230123012260 -1.920192019201920 15.361536153615361 0.960096009600989 15.361536153615361 4.710471047104704 C15.361536153615361 8.340834083408367 12.421242124212426 11.521152115211521 8.370837083708352 11.521152115211521 C4.710471047104761 11.521152115211521 1.920192019201977 8.460846084608477 1.920192019201977 4.620462046204636 C1.920192019201977 0.780078007800796 4.980498049804965 -1.920192019201920 8.550855085508601 -1.920192019201920 L4.980498049804965 -1.920192019201920 zM12.661266126612661 30.723072307230723 L16.231623162316282 30.723072307230723 C19.981998199819941 30.723072307230723 23.042304230423042 33.603360336033575 23.042304230423042 37.353735373537347 C23.042304230423042 40.984098409840954 20.222022202220273 44.164416441644164 16.381638163816433 44.164416441644164 C12.541254125412593 44.164416441644164 9.600960096009658 41.104110411041120 9.600960096009658 37.263726372637279 C9.600960096009658 33.423342334233439 12.661266126612645 30.723072307230723 16.231623162316282 30.723072307230723 L12.661266126612645 30.723072307230723 z" />
<glyph unicode=";" horiz-adv-x="30.723072307230723" d="M12.661266126612661 30.723072307230723 L16.231623162316282 30.723072307230723 C19.981998199819941 30.723072307230723 23.042304230423042 33.603360336033575 23.042304230423042 37.353735373537347 C23.042304230423042 40.984098409840954 20.222022202220273 44.164416441644164 16.381638163816433 44.164416441644164 C12.541254125412593 44.164416441644164 9.600960096009658 41.104110411041120 9.600960096009658 37.263726372637279 C9.600960096009658 33.423342334233439 12.661266126612645 30.723072307230723 16.231623162316282 30.723072307230723 L12.661266126612645 30.723072307230723 zM7.920792079207921 0.090009000900089 L8.670867086708654 0.300030003000302 C8.670867086708654 -3.540354035403539 4.920492049204881 -9.180918091809190 -1.890189018901879 -14.131413141314113 L0.420042004200468 -17.281728172817338 C10.051005100509997 -10.141014101410121 15.361536153615361 -1.410141014101384 15.361536153615361 5.910591059105911 C15.361536153615361 9.690969096909669 12.421242124212426 12.991299129912989 8.370837083708352 12.991299129912989 C4.710471047104761 12.991299129912989 1.920192019201977 9.780978097809793 1.920192019201977 5.790579057905802 C1.920192019201977 2.400240024002414 3.510351035103554 0.000000000000000 6.690669066906708 0.000000000000000 C7.260726072607213 0.000000000000000 7.920792079207899 0.090009000900068 8.670867086708654 0.300030003000302 L7.920792079207899 0.090009000900068 z" />
<glyph unicode="&#x3c;" horiz-adv-x="61.446144614461446" d="M51.395139513951392 12.991299129912992 L10.111011101110080 33.603360336033575 L51.395139513951335 54.035403540354025 L51.395139513951335 59.525952595259525 L5.610561056105553 36.753675367536744 L5.610561056105553 30.453045304530463 L51.395139513951335 7.680768076807681 L51.395139513951335 12.991299129912989 z" />
<glyph unicode="=" horiz-adv-x="63.366336633663366" d="M52.385238523852387 25.262526252625264 L53.795379537953750 30.723072307230723 L8.400840084008451 30.723072307230723 L6.990699069907009 25.262526252625264 L52.385238523852422 25.262526252625264 zM57.395739573957393 42.244224422442244 L58.805880588058812 47.704770477047703 L13.411341134113400 47.704770477047703 L12.001200120011958 42.244224422442244 L57.395739573957371 42.244224422442244 z" />
<glyph unicode=">" horiz-adv-x="61.446144614461446" d="M53.495349534953498 33.603360336033603 L12.211221122112192 12.991299129912989 L12.211221122112192 7.680768076807681 L57.995799579957975 30.453045304530463 L57.995799579957975 36.753675367536744 L12.211221122112192 59.525952595259525 L12.211221122112192 54.035403540354025 L53.495349534953448 33.603360336033575 z" />
<glyph unicode="?" horiz-adv-x="46.084608460846084" d="M16.321632163216321 -1.920192019201920 L20.042004200420024 -1.920192019201920 C23.882388238823864 -1.920192019201920 26.882688268826882 1.050105010501056 26.882688268826882 4.680468046804663 C26.882688268826882 8.430843084308435 23.462346234623510 11.521152115211521 19.201920192019202 11.521152115211521 C15.991599159915950 11.521152115211521 13.441344134413384 8.520852085208503 13.441344134413384 4.680468046804663 C13.441344134413384 0.960096009600989 16.321632163216350 -1.920192019201920 20.042004200420024 -1.920192019201920 L16.321632163216350 -1.920192019201920 zM13.441344134413441 48.304830483048306 L13.441344134413384 29.042904290429021 C13.441344134413384 22.682268226822657 16.951695169516938 19.201920192019202 23.342334233423344 19.201920192019202 C28.172817281728157 19.201920192019202 31.893189318931945 21.662166216621642 34.503450345034480 26.912691269126924 L31.833183318331862 28.532853285328542 C30.003000300029953 24.962496249624962 27.752775277527803 23.342334233423344 24.662466246624717 23.342334233423344 C21.092109210921080 23.342334233423344 19.201920192019202 24.782478247824770 19.201920192019202 27.422742274227403 C19.201920192019202 38.583858385838596 48.004800480047948 42.124212421242134 48.004800480048061 62.616261626162611 C48.004800480048061 72.277227722772295 41.734173417341708 78.727872787278727 32.133213321332164 78.727872787278727 C21.842184218421835 78.727872787278727 13.441344134413384 72.097209720972103 13.441344134413384 63.936393639363928 C13.441344134413384 58.205820582058209 17.641764176417610 53.765376537653765 23.072307230723027 53.765376537653765 C26.612661266126565 53.765376537653765 28.802880288028746 55.565556555655576 28.802880288028746 58.685868586858703 C28.802880288028859 64.536453645364531 21.122112211221065 61.116111611161102 21.122112211221065 66.426642664266410 C21.122112211221065 70.357035703570375 25.682568256825675 73.267326732673268 31.653165316531613 73.267326732673268 C37.833783378337785 73.267326732673268 42.244224422442244 69.516951695169496 42.244224422442244 64.326432643264297 C42.244224422442244 50.435043504350460 13.441344134413498 48.304830483048306 13.441344134413384 29.042904290429021 L13.441344134413384 48.304830483048306 z" />
<glyph unicode="@" horiz-adv-x="103.69036903690369" d="M70.777077707770772 53.765376537653765 L68.436843684368455 44.854485448544835 L68.136813681368153 44.974497449744945 C66.186618661866191 51.665166516651652 62.526252625262487 54.065406540654067 56.225622562256262 54.065406540654067 C43.474347434743436 54.065406540654067 30.723072307230723 39.603960396039611 30.723072307230723 25.142514251425155 C30.723072307230723 15.031503150315018 36.933693369336879 7.680768076807681 45.244524452445262 7.680768076807681 C51.035103510351064 7.680768076807681 57.275727572757319 12.451245124512468 61.176117611761129 19.561956195619587 L61.446144614461446 19.471947194719462 C61.446144614461446 11.611161116111589 65.436543654365437 7.680768076807681 72.667266726672665 7.680768076807681 C86.108610861086163 7.680768076807681 97.929792979297872 23.972397239723989 97.929792979297872 42.394239423942395 C97.929792979297872 63.036303630363022 81.668166816681605 77.107710771077109 57.665766576657688 77.107710771077109 C28.532853285328542 77.107710771077109 5.760576057605704 56.645664566456617 5.760576057605704 30.303030303030312 C5.760576057605704 4.710471047104704 26.162616261626113 -13.441344134413441 54.995499549954957 -13.441344134413441 C67.626762676267617 -13.441344134413441 78.337833783378301 -9.720972097209710 90.159015901590124 -1.350135013501358 L88.028802880288026 1.620162016201618 C78.217821782178248 -4.800480048004772 67.566756675667534 -7.980798079807983 56.225622562256262 -7.980798079807983 C31.833183318331862 -7.980798079807983 15.361536153615361 7.470747074707447 15.361536153615361 30.183018301830202 C15.361536153615361 54.335433543354327 34.083408340834126 72.967296729672967 58.235823582358194 72.967296729672967 C78.757875787578769 72.967296729672967 93.789378937893844 59.885988598859853 93.789378937893844 42.184218421842161 C93.789378937893844 28.022802280228007 84.398439843984420 13.141314131413139 75.487548754875434 13.141314131413139 C72.757275727572733 13.141314131413139 71.047104710471103 14.641464146414648 71.047104710471103 17.101710171017089 C71.047104710471103 19.111911191119134 72.157215721572129 24.482448244824468 73.687368736873623 29.822982298229817 L80.438043804380413 53.765376537653765 L70.777077707770786 53.765376537653765 zM49.054905490549054 49.924992499249925 L57.755775577557756 49.924992499249925 C62.526252625262487 49.924992499249925 65.286528652865286 46.054605460546043 65.286528652865286 39.603960396039611 C65.286528652865286 27.242724272427267 55.325532553255357 13.141314131413139 46.684668466846688 13.141314131413139 C42.514251425142561 13.141314131413139 40.324032403240267 16.531653165316527 40.324032403240381 23.042304230423042 C40.324032403240381 36.423642364236400 49.054905490549004 49.924992499249925 57.755775577557756 49.924992499249925 L49.054905490549004 49.924992499249925 z" />
<glyph unicode="A" horiz-adv-x="76.807680768076807" d="M55.085508550855081 16.681668166816682 L69.006900690068960 78.727872787278727 L60.606060606060623 78.727872787278727 L14.491449144914441 23.282328232823261 C2.190219021902180 8.520852085208503 -3.510351035103554 3.990399039903991 -9.810981098109778 3.990399039903991 L-10.801080108010751 0.000000000000000 L15.091509150915044 0.000000000000000 L16.111611161116116 3.990399039903991 C10.591059105910631 3.990399039903991 8.610861086108571 4.890489048904897 8.610861086108571 7.410741074107420 C8.610861086108571 9.030903090309039 9.510951095109476 11.041104110411027 20.402040204020409 22.472247224722480 L26.702670267026747 29.102910291029104 L48.214821482148182 29.102910291029104 L45.514551455145465 16.741674167416761 C43.114311431143165 5.790579057905802 41.404140414041422 3.990399039903991 33.603360336033575 3.990399039903991 L32.613261326132601 0.000000000000000 L62.196219621962200 0.000000000000000 L63.186318631863173 3.990399039903991 C55.895589558955862 3.990399039903991 53.885388538853931 4.980498049804965 53.885388538853931 8.910891089108930 C53.885388538853931 10.531053105310548 54.305430543054285 13.141314131413139 55.085508550855138 16.681668166816678 zM49.084908490849088 34.563456345634563 L30.993099309931040 34.563456345634563 L56.885688568856835 65.676567656765656 L57.305730573057303 65.676567656765656 L49.084908490849102 34.563456345634563 z" />
<glyph unicode="B" horiz-adv-x="72.967296729672967" d="M22.712271227122713 20.642064206420642 L27.602760276027652 38.403840384038403 L33.303330333033273 38.403840384038403 C46.804680468046854 38.403840384038403 53.315331533153312 33.933393339333918 53.315331533153312 23.852385238523880 C53.315331533153312 12.781278127812755 44.704470447044741 4.500450045004527 30.003000300029953 4.500450045004527 C25.802580258025841 4.500450045004527 20.612061206120643 5.100510051005074 20.612061206120643 10.471047104710465 C20.612061206120643 12.961296129612947 22.022202220221970 18.151815181518145 22.712271227122756 20.642064206420628 zM-2.190219021902191 4.500450045004500 L-3.300330033003320 0.000000000000000 L33.303330333033273 0.000000000000000 C51.755175517551720 0.000000000000000 65.286528652865286 8.490849084908518 65.286528652865286 22.052205220522069 C65.286528652865286 31.803180318031821 58.775877587758828 38.343834383438320 47.014701470146974 40.774077407740776 L47.014701470146974 41.194119411941188 C56.705670567056700 42.574257425742587 69.126912691269126 46.774677467746756 69.126912691269126 59.705970597059718 C69.126912691269126 73.357335733573336 54.815481548154821 76.807680768076807 42.904290429042931 76.807680768076807 L16.111611161116116 76.807680768076807 L15.001500150014976 72.307230723072280 C21.602160216021616 72.307230723072280 24.212421242124265 70.867086708670854 24.212421242124265 66.786678667866795 C24.212421242124265 65.016501650165026 23.822382238223781 62.736273627362721 23.102310231023125 59.945994599459937 L11.311131113111287 16.291629162916308 C8.520852085208503 6.000600060005979 5.910591059105855 4.500450045004527 -2.190219021902180 4.500450045004527 zM28.892889288928892 43.864386438643862 L34.503450345034480 64.446444644464464 C36.003600360035989 70.057005700570073 38.013801380138034 72.307230723072280 41.614161416141656 72.307230723072280 C53.105310531053078 72.307230723072280 57.605760576057605 68.676867686768674 57.605760576057605 60.216021602160197 C57.605760576057605 50.465046504650445 48.904890489048853 43.864386438643862 36.303630363036291 43.864386438643862 L28.892889288928927 43.864386438643862 z" />
<glyph unicode="C" horiz-adv-x="72.967296729672967" d="M57.095709570957098 3.750375037503751 L66.306630663066244 17.851785178517844 L62.706270627062736 20.312031203120341 C55.595559555955560 8.940894089408914 48.094809480948129 3.840384038403840 38.493849384938471 3.840384038403840 C25.802580258025841 3.840384038403840 19.201920192019202 12.421242124212426 19.201920192019202 29.192919291929172 C19.201920192019202 53.735373537353723 32.913291329132903 72.967296729672967 50.405040504050362 72.967296729672967 C60.606060606060623 72.967296729672967 65.616561656165572 66.336633663366342 66.606660666066546 51.605160516051626 L70.387038703870417 51.605160516051626 L75.007500750074996 76.807680768076807 L71.287128712871322 76.807680768076807 L67.596759675967633 72.157215721572129 C61.686168616861664 76.447644764476422 55.985598559856044 78.427842784278425 49.594959495949638 78.427842784278425 C27.392739273927418 78.427842784278425 7.680768076807681 55.265526552655274 7.680768076807681 29.312931293129338 C7.680768076807681 10.141014101410121 18.661866186618681 -1.920192019201920 36.303630363036291 -1.920192019201920 C48.604860486048665 -1.920192019201920 57.095709570957069 3.750375037503773 66.306630663066244 17.851785178517844 L57.095709570957069 3.750375037503773 z" />
<glyph unicode="D" horiz-adv-x="84.488448844884488" d="M15.601560156015601 76.807680768076807 L14.311431143114305 72.157215721572129 L16.201620162016184 72.157215721572129 C19.501950195019504 72.157215721572129 24.512451245124566 71.797179717971801 24.512451245124566 68.586858685868606 C24.512451245124566 66.306630663066301 22.802280228022823 61.656165616561680 22.322232223222272 59.885988598859853 L10.801080108010751 16.111611161116116 C8.100810081008149 5.910591059105911 5.910591059105855 4.410441044104402 -2.700270027002716 4.410441044104402 L-3.780378037803757 0.000000000000000 L31.203120312031160 0.000000000000000 C44.074407440744039 0.000000000000000 55.565556555655576 2.880288028802852 64.836483648364833 12.031203120312057 C72.937293729372982 19.981998199819998 78.727872787278784 32.433243324332409 78.727872787278784 44.464446444644466 C78.727872787278784 53.765376537653765 75.337533753375283 62.886288628862872 67.836783678367851 69.096909690969085 C60.846084608460842 74.917491749174928 51.785178517851818 76.807680768076807 42.694269426942697 76.807680768076807 L15.601560156015580 76.807680768076807 zM22.802280228022802 22.832283228322833 L34.623462346234646 66.696669666966727 C35.823582358235853 71.197119711971197 38.013801380138034 71.797179717971801 41.914191419141957 71.797179717971801 C57.605760576057605 71.797179717971801 67.206720672067149 62.196219621962200 67.206720672067149 45.454545454545439 C67.206720672067149 27.752775277527746 56.405640564056398 4.410441044104402 30.303030303030255 4.410441044104402 C27.392739273927418 4.410441044104402 20.312031203120341 4.410441044104402 20.312031203120341 11.521152115211521 C20.312031203120341 12.931293129312905 20.612061206120643 14.731473147314716 22.802280228022823 22.832283228322808 z" />
<glyph unicode="E" horiz-adv-x="74.887488748874887" d="M-1.500150015001502 4.290429042904290 L-2.610261026102648 0.000000000000000 L59.705970597059718 0.000000000000000 L67.506750675067451 21.062106210621039 L62.796279627962804 21.062106210621039 C57.305730573057303 8.670867086708654 50.795079507950845 4.290429042904293 35.493549354935453 4.290429042904293 C25.112511251125170 4.290429042904293 21.302130213021314 6.570657065706541 21.302130213021314 11.371137113711370 C21.302130213021314 12.961296129612947 21.602160216021616 14.761476147614758 22.202220222022220 16.951695169516938 L27.902790279027954 38.403840384038403 L35.403540354035385 38.403840384038403 C41.494149414941489 38.403840384038403 43.414341434143466 35.703570357035687 43.414341434143466 29.822982298229817 C43.414341434143466 28.322832283228308 43.294329432943300 26.612661266126622 43.114311431143165 24.632463246324619 L47.104710471047156 24.632463246324619 L53.105310531053078 53.765376537653765 L49.384938493849404 53.765376537653765 C45.214521452145163 44.704470447044685 42.604260426042629 42.544254425442546 35.493549354935453 42.544254425442546 L29.192919291929229 42.544254425442546 L36.993699369936962 72.397239723972405 L49.984998499850008 72.397239723972405 C58.385838583858344 72.397239723972405 63.396339633963407 69.246924692469236 66.786678667866795 56.315631563156330 L70.597059705970651 56.315631563156330 L70.597059705970651 76.807680768076807 L15.991599159915950 76.807680768076807 L14.911491149114909 72.397239723972405 C22.112211221122152 72.397239723972405 24.902490249024936 71.557155715571525 24.902490249024936 67.416741674167383 C24.902490249024936 65.526552655265505 24.392439243924400 63.066306630663064 23.492349234923495 59.675967596759676 L11.911191119111891 15.991599159916007 C9.390939093909424 6.570657065706541 7.290729072907311 4.290429042904293 -1.500150015001509 4.290429042904293 z" />
<glyph unicode="F" horiz-adv-x="65.286528652865286" d="M-1.500150015001502 4.290429042904290 L-2.610261026102648 0.000000000000000 L32.403240324032367 0.000000000000000 L33.513351335133507 4.290429042904293 C24.512451245124566 4.290429042904293 21.302130213021314 6.570657065706541 21.302130213021314 11.371137113711370 C21.302130213021314 12.961296129612947 21.602160216021616 14.761476147614758 22.202220222022220 16.951695169516938 L27.902790279027954 38.403840384038403 L35.913591359135921 38.403840384038403 C41.194119411941188 38.403840384038403 42.904290429042931 35.403540354035385 42.904290429042931 28.832883288328844 C42.904290429042931 27.032703270327033 42.814281428142863 25.052505250525030 42.604260426042629 22.652265226522672 L46.594659465946620 22.652265226522672 L53.585358535853629 53.765376537653765 L49.894989498949940 53.765376537653765 C45.694569456945715 44.704470447044685 43.114311431143165 42.544254425442546 36.003600360035989 42.544254425442546 L29.192919291929229 42.544254425442546 L36.993699369936962 72.397239723972405 L49.984998499850008 72.397239723972405 C58.385838583858344 72.397239723972405 63.396339633963407 69.246924692469236 66.786678667866795 56.315631563156330 L70.597059705970651 56.315631563156330 L70.597059705970651 76.807680768076807 L15.991599159915950 76.807680768076807 L14.911491149114909 72.397239723972405 C22.112211221122152 72.397239723972405 24.902490249024936 71.557155715571525 24.902490249024936 67.416741674167383 C24.902490249024936 65.526552655265505 24.392439243924400 63.066306630663064 23.492349234923495 59.675967596759676 L11.911191119111891 15.991599159916007 C9.390939093909424 6.570657065706541 7.290729072907311 4.290429042904293 -1.500150015001509 4.290429042904293 z" />
<glyph unicode="G" horiz-adv-x="80.648064806480647" d="M49.684968496849685 3.840384038403840 L38.493849384938471 3.840384038403840 C25.802580258025841 3.840384038403840 19.201920192019202 12.841284128412838 19.201920192019202 30.663066306630640 C19.201920192019202 54.395439543954410 33.693369336933642 72.967296729672967 52.415241524152407 72.967296729672967 C64.386438643864381 72.967296729672967 70.297029702970349 67.536753675367549 71.587158715871624 55.685568556855685 L75.397539753975366 55.685568556855685 L78.997899789978987 76.807680768076807 L75.307530753075298 76.807680768076807 L71.587158715871624 72.187218721872171 C65.106510651065150 76.447644764476422 58.805880588058812 78.427842784278425 51.605160516051569 78.427842784278425 C28.412841284128376 78.427842784278425 7.680768076807681 55.925592559255904 7.680768076807681 30.753075307530764 C7.680768076807681 10.861086108610834 18.661866186618681 -1.620162016201618 36.303630363036291 -1.620162016201618 C51.005100510050966 -1.620162016201618 58.025802580258073 3.330333033303305 64.116411641164177 4.350435043504376 C64.206420642064245 8.430843084308435 65.406540654065452 12.541254125412536 66.426642664266410 16.621662166216652 C69.726972697269730 29.822982298229817 71.107110711071073 30.663066306630640 76.807680768076807 30.663066306630640 L77.797779777977780 34.563456345634563 L50.405040504050362 34.563456345634563 L49.504950495049457 30.663066306630640 C56.105610561056096 30.663066306630640 57.995799579957975 28.052805280528048 57.995799579957975 22.502250225022522 C57.995799579957975 10.351035103510355 49.684968496849706 3.840384038403840 38.493849384938471 3.840384038403840 L49.684968496849706 3.840384038403840 z" />
<glyph unicode="H" horiz-adv-x="90.249024902490248" d="M71.497149714971499 16.801680168016802 L81.998199819982005 56.465646564656481 C85.598559855985627 70.027002700270032 87.908790879087860 72.817281728172816 96.699669966996680 72.817281728172816 L97.809780978097820 76.807680768076807 L65.286528652865286 76.807680768076807 L64.206420642064245 72.817281728172816 C71.407140714071375 72.817281728172816 74.107410741074091 72.127212721272144 74.107410741074091 68.106810681068112 C74.107410741074091 66.246624662466274 73.597359735973555 63.696369636963709 72.607260726072582 60.066006600660046 L67.806780678067753 42.244224422442244 L29.012901290128980 42.244224422442244 L32.913291329132903 56.735673567356741 C36.513651365136525 70.087008700870115 38.793879387938773 72.817281728172816 47.614761476147578 72.817281728172816 L48.694869486948733 76.807680768076807 L16.201620162016184 76.807680768076807 L15.091509150915044 72.817281728172816 C22.292229222922288 72.817281728172816 24.992499249925004 72.127212721272144 24.992499249925004 68.106810681068112 C24.992499249925004 66.216621662166233 24.512451245124566 63.606360636063584 23.492349234923495 59.915991599159895 L11.791179117911838 15.781578157815773 C9.210921092109174 6.000600060005979 6.210621062106156 3.990399039903991 -1.710171017101743 3.990399039903991 L-2.790279027902784 0.000000000000000 L29.102910291029048 0.000000000000000 L30.303030303030255 3.990399039903991 C23.912391239123963 3.990399039903991 21.212121212121247 5.280528052805266 21.212121212121247 9.810981098109835 C21.212121212121247 11.611161116111589 21.602160216021616 13.921392139213935 22.412241224122454 16.831683168316829 L27.602760276027652 36.783678367836785 L66.396639663966425 36.783678367836785 L60.906090609060925 15.811581158115814 C58.295829582958277 6.000600060005979 55.295529552955259 3.990399039903991 47.404740474047458 3.990399039903991 L46.294629462946318 0.000000000000000 L78.187818781878150 0.000000000000000 L79.387938793879357 3.990399039903991 C72.997299729972951 3.990399039903991 70.297029702970349 5.280528052805266 70.297029702970349 9.810981098109835 C70.297029702970349 11.611161116111589 70.687068706870718 13.891389138913894 71.497149714971556 16.801680168016787 z" />
<glyph unicode="I" horiz-adv-x="42.244224422442244" d="M22.412241224122411 16.771677167716771 L32.913291329132903 56.465646564656481 C36.513651365136525 70.027002700270032 38.793879387938773 72.817281728172816 47.614761476147578 72.817281728172816 L48.694869486948733 76.807680768076807 L16.201620162016184 76.807680768076807 L15.091509150915044 72.817281728172816 C22.292229222922288 72.817281728172816 24.992499249925004 72.127212721272144 24.992499249925004 68.016801680167987 C24.992499249925004 66.126612661266108 24.512451245124566 63.516351635163517 23.492349234923495 59.825982598259827 L11.791179117911838 15.751575157515731 C9.210921092109174 5.970597059705995 6.210621062106156 3.990399039903991 -1.710171017101743 3.990399039903991 L-2.790279027902784 0.000000000000000 L29.102910291029048 0.000000000000000 L30.303030303030255 3.990399039903991 C23.912391239123963 3.990399039903991 21.212121212121247 5.280528052805266 21.212121212121247 9.780978097809793 C21.212121212121247 11.581158115811604 21.602160216021616 13.861386138613852 22.412241224122454 16.771677167716746 z" />
<glyph unicode="J" horiz-adv-x="53.765376537653765" d="M20.102010201020100 3.840384038403840 L13.591359135913535 3.840384038403840 C10.171017101710163 3.840384038403840 7.680768076807681 5.670567056705693 7.680768076807681 8.340834083408367 C7.680768076807681 11.911191119111891 12.871287128712879 12.031203120312057 12.871287128712879 17.131713171317131 C12.871287128712879 20.582058205820601 10.291029102910329 23.042304230423042 6.690669066906708 23.042304230423042 C1.800180018001811 23.042304230423042 -1.920192019201977 18.241824182418213 -1.920192019201977 11.821182118211823 C-1.920192019201977 3.120312031203127 3.720372037203674 -1.920192019201920 13.681368136813717 -1.920192019201920 C25.592559255925607 -1.920192019201920 34.383438343834428 5.160516051605157 37.683768376837634 17.881788178817885 L47.674767476747661 56.255625562556247 C51.275127512751283 70.177017701770183 53.285328532853327 72.817281728172816 61.386138613861363 72.817281728172816 L62.466246624662517 76.807680768076807 L29.972997299729968 76.807680768076807 L28.892889288928927 72.817281728172816 C37.593759375937566 72.817281728172816 39.783978397839746 71.827182718271843 39.783978397839746 68.016801680167987 C39.783978397839746 66.216621662166233 39.273927392739324 63.486348634863475 38.283828382838237 59.795979597959786 L28.382838283828391 21.812181218121793 C25.382538253825373 10.471047104710465 20.102010201020107 3.840384038403840 13.591359135913535 3.840384038403840 L20.102010201020107 3.840384038403840 z" />
<glyph unicode="K" horiz-adv-x="82.568256825682568" d="M29.102910291029104 42.604260426042600 L32.793279327932851 56.465646564656481 C36.393639363936359 70.027002700270032 38.703870387038705 72.817281728172816 47.494749474947525 72.817281728172816 L48.604860486048665 76.807680768076807 L16.111611161116116 76.807680768076807 L15.001500150014976 72.817281728172816 C22.202220222022220 72.817281728172816 24.902490249024936 72.127212721272144 24.902490249024936 68.016801680167987 C24.902490249024936 66.126612661266108 24.392439243924400 63.516351635163517 23.402340234023427 59.825982598259827 L11.701170117011657 15.751575157515731 C9.090909090909122 5.970597059705995 6.600660066006640 3.990399039903991 -0.810081008100838 3.990399039903991 L-1.890189018901879 0.000000000000000 L30.003000300029953 0.000000000000000 L31.203120312031160 3.990399039903991 C24.092409240924098 3.990399039903991 21.092109210921080 5.280528052805266 21.092109210921080 9.780978097809793 C21.092109210921080 11.581158115811604 21.512151215121548 13.861386138613852 22.292229222922288 16.771677167716746 L27.302730273027350 35.613561356135619 L31.293129312931342 38.403840384038403 L47.104710471047156 17.251725172517240 C51.005100510050966 11.971197119711974 52.805280528052776 8.670867086708654 52.805280528052776 6.780678067806775 C52.805280528052776 4.500450045004527 50.105010501050060 3.990399039903991 45.394539453945413 3.990399039903991 L44.314431443144258 0.000000000000000 L75.697569756975668 0.000000000000000 L76.807680768076807 3.990399039903991 C71.407140714071375 3.990399039903991 70.087008700870115 4.500450045004470 59.405940594059416 18.661866186618681 L39.813981398139845 44.374437443744398 L55.205520552055191 55.145514551455165 C76.207620762076203 69.936993699369964 79.297929792979289 72.817281728172816 83.588358835883582 72.817281728172816 L84.608460846084654 76.807680768076807 L56.195619561956164 76.807680768076807 L55.205520552055191 72.817281728172816 C59.495949594959484 72.817281728172816 61.896189618961898 71.917191719171910 61.896189618961898 70.027002700270032 C61.896189618961898 67.536753675367549 58.205820582058209 63.336333633363324 49.804980498049758 57.365736573657387 L29.102910291029048 42.604260426042629 z" />
<glyph unicode="L" horiz-adv-x="71.047104710471046" d="M-1.410141014101409 4.290429042904290 L-2.490249024902482 0.000000000000000 L56.795679567956768 0.000000000000000 L65.586558655865588 23.042304230423042 L60.906090609060925 23.042304230423042 C55.205520552055191 9.270927092709258 48.514851485148483 4.290429042904293 32.613261326132601 4.290429042904293 C24.302430243024332 4.290429042904293 21.392139213921382 6.570657065706541 21.392139213921382 11.371137113711370 C21.392139213921382 12.961296129612947 21.692169216921684 14.761476147614758 22.292229222922288 16.951695169516938 L32.703270327032669 56.465646564656481 C36.303630363036291 70.027002700270032 38.613861386138637 72.817281728172816 47.404740474047458 72.817281728172816 L48.514851485148483 76.807680768076807 L15.991599159915950 76.807680768076807 L14.911491149114909 72.817281728172816 C22.112211221122152 72.817281728172816 24.812481248124868 72.127212721272144 24.812481248124868 68.016801680167987 C24.812481248124755 66.126612661266108 24.212421242124265 63.546354635463558 23.312331233123359 59.885988598859853 L12.001200120011958 15.991599159916007 C9.600960096009544 6.570657065706541 7.290729072907311 4.290429042904293 -1.410141014101441 4.290429042904293 z" />
<glyph unicode="M" horiz-adv-x="101.77017701770177" d="M84.488448844884488 65.316531653165313 L84.908490849084956 65.316531653165327 L71.707170717071676 15.751575157515731 C69.096909690969142 5.970597059705995 66.606660666066546 3.990399039903991 59.195919591959182 3.990399039903991 L58.085808580858043 0.000000000000000 L90.009000900089973 0.000000000000000 L91.209120912091180 3.990399039903991 C84.098409840984118 3.990399039903991 81.098109810981100 5.280528052805266 81.098109810981100 9.690969096909669 C81.098109810981100 11.491149114911480 81.488148814881470 13.771377137713785 82.298229822982307 16.681668166816678 L92.799279927992757 56.435643564356440 C96.399639963996378 69.906990699069922 97.899789978997887 72.817281728172816 105.490549054905500 72.817281728172816 L106.600660066006640 76.807680768076807 L85.508550855085559 76.807680768076807 L47.794779477947827 17.281728172817282 L47.404740474047458 17.281728172817282 L40.294029402940282 76.807680768076807 L16.291629162916252 76.807680768076807 L15.211521152115210 72.817281728172816 C22.412241224122454 72.817281728172816 25.112511251125170 72.127212721272144 25.112511251125170 68.016801680167987 C25.112511251125056 66.126612661266108 24.602460246024634 63.516351635163517 23.612361236123661 59.825982598259827 L11.911191119111891 15.751575157515731 C10.111011101110080 8.970897089708956 4.590459045904595 3.990399039903991 -1.590159015901577 3.990399039903991 L-2.700270027002716 0.000000000000000 L24.902490249024936 0.000000000000000 L26.102610261026143 3.990399039903991 C20.912091209120945 3.990399039903991 17.491749174917459 6.870687068706843 17.491749174917459 12.271227122712276 C17.491749174917459 13.561356135613551 17.791779177917761 15.061506150615060 18.211821182118229 16.681668166816678 L30.993099309931040 65.316531653165327 L31.413141314131394 65.316531653165327 L39.213921392139241 0.000000000000000 L43.504350435043534 0.000000000000000 L84.488448844884488 65.316531653165327 z" />
<glyph unicode="N" horiz-adv-x="84.488448844884488" d="M57.995799579957996 0.000000000000000 L61.986198619861966 0.000000000000000 L78.187818781878150 61.056105610561076 C79.987998799879961 67.836783678367851 84.608460846084654 72.817281728172816 89.708970897089671 72.817281728172816 L90.789078907890826 76.807680768076807 L65.196519651965218 76.807680768076807 L63.996399639964011 72.817281728172816 C68.706870687068658 72.817281728172816 72.397239723972348 69.516951695169496 72.397239723972348 63.816381638163818 C72.397239723972348 62.706270627062736 72.187218721872227 61.416141614161404 71.887188718871926 60.126012601260129 L61.296129612961295 19.591959195919571 L60.906090609060925 19.591959195919571 L35.913591359135921 76.807680768076807 L12.391239123912442 76.807680768076807 L11.191119111911235 72.817281728172816 C20.012001200120039 72.817281728172816 25.892589258925909 69.516951695169496 25.892589258925909 63.216321632163215 C25.892589258925909 62.226222622262242 25.802580258025841 61.206120612061227 25.502550255025540 60.126012601260129 L13.711371137113701 15.781578157815773 C11.911191119111891 8.970897089708956 6.390639063906406 3.990399039903991 0.210021002100234 3.990399039903991 L-0.900090009000905 0.000000000000000 L27.692769276927720 0.000000000000000 L28.892889288928927 3.990399039903991 C23.012301230123057 3.990399039903991 19.411941194119436 6.900690069006885 19.411941194119436 12.391239123912385 C19.411941194119436 13.681368136813660 19.591959195919571 15.091509150915101 20.012001200120039 16.681668166816678 L31.413141314131394 60.126012601260129 L31.803180318031764 60.126012601260129 L57.995799579957975 0.000000000000000 z" />
<glyph unicode="O" horiz-adv-x="82.568256825682568" d="M67.896789678967892 78.427842784278425 L51.005100510050966 78.427842784278425 C27.872787278727856 78.427842784278425 7.680768076807681 55.895589558955919 7.680768076807681 30.003000300030010 C7.680768076807681 10.921092109210917 18.721872187218764 -1.620162016201618 35.703570357035687 -1.620162016201618 C58.715871587158745 -1.620162016201618 78.727872787278670 20.822082208220820 78.727872787278784 46.804680468046797 C78.727872787278784 66.126612661266108 67.896789678967934 78.427842784278425 51.005100510050966 78.427842784278425 L67.896789678967934 78.427842784278425 zM33.153315331533150 72.967296729672967 L51.005100510050966 72.967296729672967 C62.076207620762034 72.967296729672967 67.206720672067149 65.586558655865588 67.206720672067149 49.534953495349555 C67.206720672067149 23.042304230423042 54.395439543954353 3.840384038403840 37.143714371437113 3.840384038403840 C25.442544254425457 3.840384038403840 19.201920192019202 12.631263126312660 19.201920192019202 29.702970297029708 C19.201920192019202 53.975397539753999 33.153315331533122 72.967296729672967 51.005100510050966 72.967296729672967 L33.153315331533122 72.967296729672967 z" />
<glyph unicode="P" horiz-adv-x="67.206720672067206" d="M23.132313231323131 21.062106210621060 L27.332733273327335 36.483648364836483 L34.593459345934548 36.483648364836483 C55.715571557155727 36.483648364836483 71.047104710471103 46.414641464146428 71.047104710471103 60.096009600960087 C71.047104710471103 70.597059705970594 60.696069606960691 76.807680768076807 43.324332433243285 76.807680768076807 L15.511551155115512 76.807680768076807 L14.431443144314471 72.307230723072280 C22.502250225022522 72.307230723072280 24.812481248124868 71.137113711371171 24.812481248124868 67.506750675067508 C24.812481248124755 65.826582658265806 24.422442244224385 63.336333633363324 23.522352235223480 60.066006600660046 L11.731173117311755 16.321632163216350 C9.510951095109476 8.160816081608175 5.610561056105553 4.500450045004527 -0.780078007800739 4.500450045004527 L-1.860186018601894 0.000000000000000 L31.323132313231326 0.000000000000000 L32.433243324332466 4.500450045004527 C24.842484248424853 4.500450045004527 21.032103210320997 6.540654065406557 21.032103210320997 10.621062106210616 C21.032103210320997 12.361236123612343 21.842184218421835 16.231623162316225 23.132313231323110 21.062106210621039 zM28.622862286228624 41.944194419441942 L34.923492349234948 64.626462646264599 C36.633663366336577 70.777077707770786 38.133813381338086 72.307230723072280 43.534353435343519 72.307230723072280 C54.125412541254150 72.307230723072280 59.525952595259469 68.376837683768372 59.525952595259469 60.666066606660650 C59.525952595259469 49.714971497149691 48.634863486348650 41.944194419441942 33.513351335133507 41.944194419441942 L28.622862286228610 41.944194419441942 z" />
<glyph unicode="Q" horiz-adv-x="82.568256825682568" d="M67.896789678967892 78.427842784278425 L50.885088508850913 78.427842784278425 C27.752775277527803 78.427842784278425 7.680768076807681 55.655565556555644 7.680768076807681 29.612961296129583 C7.680768076807681 10.621062106210616 18.121812181218161 -1.920192019201920 34.353435343534329 -1.920192019201920 L15.571557155715595 -9.810981098109835 C8.640864086408669 -12.751275127512770 6.480648064806474 -14.791479147914799 6.480648064806474 -18.121812181218161 C6.480648064806474 -21.362136213621397 8.430843084308435 -23.342334233423344 11.701170117011657 -23.342334233423344 C19.201920192019202 -23.342334233423344 19.111911191119134 -13.141314131413139 25.472547254725441 -13.141314131413139 C33.843384338433793 -13.141314131413139 41.014101410141052 -26.882688268826882 56.045604560456013 -26.882688268826882 C67.296729672967331 -26.882688268826882 76.327632763276370 -19.321932193219368 78.727872787278784 -7.890789078907915 L75.397539753975366 -6.570657065706541 C73.387338733873435 -13.681368136813660 67.656765676567602 -17.281728172817338 60.936093609360910 -17.281728172817338 C50.285028502850309 -17.281728172817338 45.214521452145163 -7.680768076807681 34.053405340534027 -7.680768076807681 L33.843384338433793 -7.380738073807379 L55.205520552055191 4.320432043204335 C68.976897689768975 11.851185118511864 78.727872787278784 28.412841284128433 78.727872787278784 46.264626462646277 C78.727872787278784 65.886588658865890 67.896789678967934 78.427842784278425 50.885088508850913 78.427842784278425 L67.896789678967934 78.427842784278425 zM33.153315331533150 72.967296729672967 L50.885088508850913 72.967296729672967 C62.016201620162065 72.967296729672967 67.206720672067149 65.406540654065395 67.206720672067149 49.024902490249019 C67.206720672067149 23.162316231623151 54.365436543654369 3.840384038403840 37.143714371437113 3.840384038403840 C25.472547254725441 3.840384038403840 19.201920192019202 12.751275127512770 19.201920192019202 29.312931293129338 C19.201920192019202 53.855385538553833 33.153315331533122 72.967296729672967 50.885088508850913 72.967296729672967 L33.153315331533122 72.967296729672967 z" />
<glyph unicode="R" horiz-adv-x="76.807680768076807" d="M22.712271227122713 20.102010201020100 L27.392739273927418 36.783678367836785 L36.213621362136223 36.783678367836785 L50.915091509150898 0.000000000000000 L70.327032703270334 0.000000000000000 L71.437143714371473 3.990399039903991 C62.586258625862570 3.990399039903991 59.945994599459937 6.750675067506734 54.335433543354384 20.102010201020107 L46.804680468046854 38.073807380738060 C60.246024602460238 40.804080408040818 69.126912691269126 48.454845484548457 69.126912691269126 59.525952595259525 C69.126912691269126 70.387038703870417 59.165916591659197 76.807680768076807 42.904290429042931 76.807680768076807 L15.091509150915044 76.807680768076807 L14.011401140114003 72.307230723072280 C22.082208220822054 72.307230723072280 24.392439243924400 71.077107710771088 24.392439243924400 67.266726672667232 C24.392439243924400 65.586558655865588 24.002400240024031 63.096309630963106 23.102310231023125 59.795979597959786 L11.311131113111287 15.841584158415856 C9.090909090909122 7.680768076807681 5.190519051905199 3.990399039903991 -1.200120012001207 3.990399039903991 L-2.280228022802248 0.000000000000000 L30.903090309030858 0.000000000000000 L32.013201320131998 3.990399039903991 C24.422442244224385 3.990399039903991 20.612061206120643 5.970597059705995 20.612061206120643 9.960996099609986 C20.612061206120643 11.641164116411630 21.422142214221367 15.421542154215444 22.712271227122756 20.102010201020107 zM28.712871287128714 42.244224422442244 L34.503450345034480 64.266426642664271 C36.213621362136223 70.687068706870718 37.713771377137732 72.307230723072280 43.114311431143165 72.307230723072280 C52.505250525052475 72.307230723072280 57.605760576057605 68.196819681968179 57.605760576057605 60.156015601560171 C57.605760576057605 48.694869486948676 47.614761476147578 42.244224422442244 33.603360336033575 42.244224422442244 L28.712871287128678 42.244224422442244 z" />
<glyph unicode="S" horiz-adv-x="59.525952595259525" d="M57.875787578757873 75.757575757575751 L55.865586558655878 71.347134713471348 C51.065106510651049 76.207620762076203 46.054605460546099 78.427842784278425 39.573957395739626 78.427842784278425 C26.462646264626414 78.427842784278425 15.961596159615965 68.916891689168892 15.961596159615965 57.155715571557153 C15.961596159615965 38.523852385238513 44.164416441644107 34.683468346834673 44.164416441644107 17.851785178517844 C44.164416441644107 9.780978097809793 37.263726372637279 3.840384038403840 27.752775277527803 3.840384038403840 C17.461746174617474 3.840384038403840 11.371137113711370 11.311131113111287 10.471047104710465 25.112511251125113 L7.170717071707145 25.112511251125113 L2.970297029702920 0.000000000000000 L6.450645064506489 0.000000000000000 L8.550855085508601 7.170717071707145 C14.041404140413988 1.230123012301249 20.252025202520258 -1.620162016201618 27.662766276627622 -1.620162016201618 C42.154215421542176 -1.620162016201618 53.765376537653765 9.420942094209408 53.765376537653765 23.072307230723084 C53.765376537653765 43.744374437443753 25.772577257725743 46.654665466546646 25.772577257725743 61.176117611761185 C25.772577257725743 68.016801680167987 31.683168316831711 72.967296729672967 39.873987398739928 72.967296729672967 C48.814881488148785 72.967296729672967 52.805280528052776 67.836783678367851 53.225322532253244 55.745574557455768 L56.675667566756715 55.745574557455768 L60.876087608760827 75.757575757575751 L57.875787578757922 75.757575757575751 z" />
<glyph unicode="T" horiz-adv-x="78.727872787278727" d="M40.714071407140715 16.771677167716771 L52.505250525052475 60.846084608460842 C54.995499549954957 70.417041704170401 57.605760576057605 72.607260726072582 64.206420642064245 72.607260726072582 C73.507350735073487 72.607260726072582 78.307830783078316 68.316831683168289 78.307830783078316 55.505550555055493 L82.088208820882073 55.505550555055493 L84.098409840984118 76.807680768076807 L17.311731173117323 76.807680768076807 L7.800780078007847 55.505550555055493 L11.791179117911838 55.505550555055493 C17.491749174917459 66.306630663066301 26.102610261026143 72.607260726072582 37.803780378037800 72.607260726072582 C41.614161416141656 72.607260726072582 43.294329432943300 71.017101710171005 43.294329432943300 67.206720672067206 C43.294329432943300 65.616561656165629 42.994299429942998 63.606360636063584 42.394239423942395 61.236123612361212 L30.213021302130187 15.751575157515731 C27.392739273927418 5.400540054005376 23.612361236123661 3.990399039903991 15.691569156915648 3.990399039903991 L14.611461146114607 0.000000000000000 L49.384938493849404 0.000000000000000 L50.585058505850611 3.990399039903991 C42.214221422142259 3.990399039903991 39.093909390939075 5.490549054905500 39.093909390939075 9.780978097809793 C39.093909390939075 11.581158115811604 39.903990399039913 13.771377137713785 40.714071407140750 16.771677167716746 z" />
<glyph unicode="U" horiz-adv-x="80.648064806480647" d="M19.771977197719771 59.855985598559855 L13.441344134413384 34.923492349234948 C12.181218121812208 29.972997299729968 11.521152115211521 25.622562256225592 11.521152115211521 21.362136213621341 C11.521152115211521 6.600660066006583 19.801980198019805 -1.770177017701769 36.423642364236457 -1.770177017701769 C53.615361536153614 -1.770177017701769 65.016501650164969 12.151215121512166 70.717071707170703 38.763876387638788 L75.007500750074996 58.895889588958880 C77.617761776177645 71.017101710171005 79.507950795079523 72.817281728172816 86.018601860185981 72.817281728172816 L87.218721872187189 76.807680768076807 L60.936093609360910 76.807680768076807 L59.735973597359703 72.817281728172816 C65.946594659465973 72.817281728172816 69.936993699369964 71.107110711071073 69.936993699369964 67.056705670567055 C69.936993699369964 62.406240624062434 66.036603660366040 41.524152415241531 61.926192619261883 28.562856285628584 C57.425742574257470 14.371437143714388 50.435043504350460 3.840384038403840 37.233723372337181 3.840384038403840 C26.732673267326732 3.840384038403840 21.122112211221065 10.711071107110683 21.122112211221065 21.452145214521465 C21.122112211221065 24.272427242724291 21.512151215121548 27.482748274827486 22.412241224122454 30.933093309330957 L28.922892289228912 56.195619561956164 C32.613261326132601 70.807080708070771 34.203420342034178 72.817281728172816 43.714371437143654 72.817281728172816 L44.824482448244794 76.807680768076807 L12.841284128412894 76.807680768076807 L11.521152115211521 72.817281728172816 C18.511851185118530 72.817281728172816 21.032103210320997 71.467146714671458 21.032103210320997 67.656765676567659 C21.032103210320997 65.736573657365739 20.462046204620492 62.586258625862570 19.771977197719821 59.855985598559869 z" />
<glyph unicode="V" horiz-adv-x="74.887488748874887" d="M58.595859585958593 54.245424542454245 L24.812481248124868 13.441344134413441 L24.392439243924400 13.441344134413441 L34.503450345034480 60.006000600060020 C36.903690369036894 70.987098709871020 38.613861386138637 72.817281728172816 46.414641464146371 72.817281728172816 L47.404740474047458 76.807680768076807 L17.791779177917761 76.807680768076807 L16.801680168016787 72.817281728172816 C24.092409240924098 72.817281728172816 26.102610261026143 71.797179717971801 26.102610261026143 67.866786678667836 C26.102610261026143 66.246624662466274 25.712571257125660 63.636363636363626 24.902490249024936 60.096009600960087 L11.011101110110985 -1.920192019201920 L19.411941194119436 -1.920192019201920 L64.506450645064547 53.525352535253546 C76.597659765976573 68.466846684668440 82.508250825082541 72.817281728172816 88.808880888088765 72.817281728172816 L89.798979897989739 76.807680768076807 L63.906390639063943 76.807680768076807 L62.886288628862872 72.817281728172816 C67.506750675067451 72.817281728172816 69.786978697869813 72.307230723072280 69.786978697869813 70.297029702970292 C69.786978697869813 67.866786678667836 66.006600660065942 63.126312631263090 58.595859585958578 54.245424542454259 z" />
<glyph unicode="W" horiz-adv-x="105.61056105610561" d="M89.588958895889590 54.245424542454245 L58.805880588058812 14.431443144314414 L58.385838583858344 14.431443144314414 L68.496849684968538 59.975997599759978 C70.897089708970952 70.987098709871020 72.607260726072582 72.817281728172816 80.408040804080429 72.817281728172816 L81.398139813981402 76.807680768076807 L52.805280528052776 76.807680768076807 L51.785178517851818 72.817281728172816 C58.295829582958277 72.817281728172816 60.096009600960087 71.797179717971801 60.096009600960087 67.866786678667836 C60.096009600960087 66.246624662466274 59.705970597059718 63.636363636363626 58.895889588958880 60.096009600960087 L58.505850585058511 58.385838583858401 L24.602460246024634 14.431443144314414 L24.212421242124265 14.431443144314414 L34.293429342934246 59.975997599759978 C36.693669366936660 70.897089708970896 38.613861386138637 72.817281728172816 44.194419441944206 72.817281728172816 L45.214521452145163 76.807680768076807 L17.611761176117625 76.807680768076807 L16.591659165916553 72.817281728172816 C23.912391239123963 72.817281728172816 25.892589258925909 71.797179717971801 25.892589258925909 67.866786678667836 C25.892589258925909 66.246624662466274 25.502550255025540 63.636363636363626 24.692469246924702 60.096009600960087 L10.801080108010751 -1.920192019201920 L19.201920192019202 -1.920192019201920 L55.805580558055794 46.264626462646277 L45.004500450045043 -1.920192019201920 L53.405340534053380 -1.920192019201920 L95.499549954995473 53.525352535253546 C107.110711071107060 68.886888688868908 113.501350135013470 72.817281728172816 119.801980198019810 72.817281728172816 L120.792079207920780 76.807680768076807 L94.899489948994869 76.807680768076807 L93.909390939093896 72.817281728172816 C98.109810981098121 72.817281728172816 100.210021002100230 72.427242724272446 100.210021002100230 70.507050705070526 C100.210021002100230 68.196819681968179 96.699669966996680 63.426342634263449 89.588958895889618 54.245424542454259 z" />
<glyph unicode="X" horiz-adv-x="78.727872787278727" d="M57.095709570957098 16.651665166516651 L45.394539453945413 42.094209420942093 L62.886288628862872 61.236123612361212 C70.897089708970952 70.027002700270032 74.887488748874830 72.817281728172816 80.708070807080730 72.817281728172816 L81.788178817881771 76.807680768076807 L55.985598559856044 76.807680768076807 L54.785478547854837 72.817281728172816 C58.685868586858646 72.817281728172816 60.606060606060623 71.827182718271843 60.606060606060623 69.816981698169798 C60.606060606060623 67.416741674167383 57.905790579057907 63.336333633363324 51.785178517851818 56.555655565556549 L43.204320432043232 46.984698469846990 L38.313831383138336 57.755775577557756 C36.213621362136223 62.436243624362419 35.193519351935151 65.556555655565546 35.193519351935151 67.836783678367851 C35.193519351935151 71.227122712271239 37.293729372937264 72.817281728172816 41.914191419141957 72.817281728172816 L42.994299429942998 76.807680768076807 L11.911191119111891 76.807680768076807 L10.801080108010751 72.817281728172816 C17.491749174917459 72.817281728172816 20.312031203120341 70.717071707170703 24.512451245124566 62.046204620462049 L35.313531353135318 39.393939393939377 L12.211221122112192 12.871287128712879 C5.490549054905500 5.190519051905199 4.590459045904595 4.680468046804663 -2.910291029102950 3.990399039903991 L-3.900390039003923 0.000000000000000 L24.992499249925004 0.000000000000000 L25.892589258925909 3.990399039903991 C20.492049204920477 3.990399039903991 18.091809180918062 5.100510051005074 18.091809180918062 7.590759075907613 C18.091809180918062 10.471047104710465 21.512151215121548 15.871587158715897 29.402940294029349 24.542454245424551 L37.713771377137732 33.723372337233741 L45.814581458145767 15.871587158715897 C46.894689468946922 13.351335133513373 47.614761476147578 10.681068106810699 47.614761476147578 8.970897089708956 C47.614761476147578 5.580558055805568 44.914491449144862 3.990399039903991 39.213921392139241 3.990399039903991 L38.313831383138336 0.000000000000000 L71.287128712871322 0.000000000000000 L72.187218721872227 3.990399039903991 C64.896489648964916 3.990399039903991 61.686168616861664 6.690669066906708 57.095709570957069 16.651665166516636 z" />
<glyph unicode="Y" horiz-adv-x="69.126912691269126" d="M39.303930393039302 16.771677167716771 L44.014401440143956 34.713471347134714 L65.406540654065452 64.746474647464765 C70.087008700870115 71.407140714071375 71.407140714071375 72.817281728172816 76.807680768076807 72.817281728172816 L77.887788778877848 76.807680768076807 L53.195319531953146 76.807680768076807 L52.085208520852120 72.817281728172816 C56.705670567056700 72.817281728172816 59.495949594959484 71.317131713171307 59.495949594959484 68.526852685268523 C59.495949594959484 66.126612661266108 58.295829582958277 64.446444644464464 55.385538553855440 60.246024602460238 L41.494149414941489 39.993999399939980 L30.813081308130791 65.736573657365739 C30.213021302130187 67.146714671467180 30.003000300029953 68.436843684368455 30.003000300029953 69.336933693369360 C30.003000300029953 71.917191719171910 32.103210321032066 72.817281728172816 37.113711371137128 72.817281728172816 L38.193819381938169 76.807680768076807 L10.111011101110080 76.807680768076807 L9.000900090009054 72.817281728172816 C15.601560156015580 72.817281728172816 17.311731173117323 71.827182718271843 21.302130213021314 62.256225622562283 L33.303330333033273 33.513351335133507 L28.712871287128678 15.751575157515731 C26.102610261026143 5.880588058805870 22.802280228022823 3.990399039903991 14.191419141914139 3.990399039903991 L13.111311131113098 0.000000000000000 L47.014701470146974 0.000000000000000 L48.214821482148182 3.990399039903991 C41.104110411041120 3.990399039903991 38.103810381038102 5.280528052805266 38.103810381038102 9.780978097809793 C38.103810381038102 11.581158115811604 38.493849384938471 13.861386138613852 39.303930393039309 16.771677167716746 z" />
<glyph unicode="Z" horiz-adv-x="67.206720672067206" d="M15.811581158115811 5.010501050105010 L69.606960696069564 74.917491749174928 L69.606960696069564 76.807680768076807 L21.092109210921080 76.807680768076807 L11.011101110110985 57.065706570657085 L15.301530153015278 57.065706570657085 C23.012301230123057 69.606960696069621 27.602760276027652 72.007200720071978 43.504350435043534 72.007200720071978 L53.585358535853629 72.007200720071978 L-0.690069006900671 2.100210021002113 L-0.690069006900671 0.000000000000000 L52.385238523852422 0.000000000000000 L60.786078607860759 22.052205220522069 L56.495649564956466 22.052205220522069 C50.705070507050664 9.600960096009601 40.894089408940886 5.010501050105006 28.292829282928324 5.010501050105006 L15.811581158115814 5.010501050105006 z" />
<glyph unicode="[" horiz-adv-x="36.483648364836483" d="M31.893189318931892 77.857785778577863 L47.014701470146974 77.857785778577863 L48.304830483048363 82.568256825682568 L24.212421242124265 82.568256825682568 L-2.010201020102045 -15.361536153615361 L21.992199219921986 -15.361536153615361 L23.312331233123359 -11.221122112211219 L8.190819081908217 -11.221122112211219 L31.893189318931945 77.857785778577863 z" />
<glyph unicode="\" horiz-adv-x="46.084608460846084" d="M15.001500150015001 76.807680768076807 L28.712871287128678 0.000000000000000 L35.103510351035084 0.000000000000000 L20.492049204920477 76.807680768076807 L15.001500150014976 76.807680768076807 z" />
<glyph unicode="]" horiz-adv-x="36.483648364836483" d="M6.090609060906090 -11.221122112211219 L-8.910891089108873 -11.221122112211219 L-10.201020102010261 -15.361536153615361 L13.801380138013769 -15.361536153615361 L40.114011401140147 82.568256825682568 L15.991599159915950 82.568256825682568 L14.701470147014675 77.857785778577863 L29.792979297929833 77.857785778577863 L6.090609060906104 -11.221122112211219 z" />
<glyph unicode="^" horiz-adv-x="48.004800480048004" d="M31.503150315031505 40.324032403240324 L22.502250225022522 40.324032403240324 L6.000600060006036 23.042304230423042 L10.411041104110382 23.042304230423042 L25.412541254125358 34.443444344434454 L34.203420342034178 23.042304230423042 L38.703870387038705 23.042304230423042 L31.503150315031462 40.324032403240324 z" />
<glyph unicode="_" horiz-adv-x="72.967296729672967" d="M-4.500450045004499 -13.441344134413441 L52.505250525052475 -13.441344134413441 L54.785478547854837 -5.760576057605761 L-2.190219021902180 -5.760576057605761 L-4.500450045004527 -13.441344134413441 z" />
<glyph unicode="`" horiz-adv-x="26.882688268826882" d="M18.691869186918691 65.286528652865286 L23.402340234023427 65.286528652865286 L13.591359135913535 77.317731773177343 C11.701170117011657 79.627962796279633 9.900990099009960 80.648064806480647 7.800780078007847 80.648064806480647 C5.400540054005433 80.648064806480647 2.910291029102950 79.027902790279029 2.910291029102950 76.297629762976271 C2.910291029102950 74.587458745874585 4.410441044104459 73.177317731773201 6.810681068106760 71.857185718571827 L18.691869186918666 65.286528652865286 z" />
<glyph unicode="a" horiz-adv-x="57.605760576057605" d="M24.212421242124211 48.304830483048306 L34.563456345634563 48.304830483048306 C37.113711371137128 48.304830483048306 38.733873387338690 46.204620462046194 38.733873387338690 42.724272427242738 C38.733873387338690 29.882988298829900 26.552655265526596 5.760576057605761 17.041704170417006 5.760576057605761 C13.681368136813717 5.760576057605761 11.521152115211521 8.820882088208805 11.521152115211521 13.561356135613551 C11.521152115211521 27.332733273327335 24.212421242124265 48.304830483048306 34.563456345634563 48.304830483048306 L24.212421242124265 48.304830483048306 zM45.124512451245124 53.765376537653765 L43.024302430242983 46.894689468946922 C41.164116411641203 51.695169516951694 38.193819381938169 53.765376537653765 33.363336333633356 53.765376537653765 C19.021902190219066 53.765376537653765 1.920192019201977 31.563156315631545 1.920192019201977 13.051305130513072 C1.920192019201977 3.750375037503773 6.060606060606006 -1.920192019201920 12.811281128112796 -1.920192019201920 C19.201920192019202 -1.920192019201920 26.552655265526596 3.780378037803757 30.333033303330353 11.431143114311453 L30.723072307230723 11.341134113411329 C30.723072307230723 8.760876087608779 30.723072307230723 7.260726072607270 30.723072307230723 6.060606060606062 C30.723072307230723 0.420042004200411 32.553255325532518 -1.920192019201920 35.853585358535838 -1.920192019201920 C42.034203420342010 -1.920192019201920 49.144914491449185 3.960396039603950 54.815481548154821 14.041404140414045 L52.235223522352271 16.141614161416157 C47.824782478247812 10.051005100510054 44.104410441044138 5.760576057605761 42.214221422142259 5.760576057605761 C41.014101410141052 5.760576057605761 40.324032403240381 6.750675067506734 40.324032403240381 8.670867086708654 C40.324032403240381 13.201320132013223 43.924392439243888 27.662766276627679 47.734773477347744 38.043804380438019 L53.435343534353478 53.765376537653765 L45.124512451245096 53.765376537653765 z" />
<glyph unicode="b" horiz-adv-x="53.765376537653765" d="M20.462046204620464 44.254425442544253 L33.153315331533122 82.568256825682568 L13.171317131713181 82.568256825682568 L12.361236123612343 79.177917791779180 C17.761776177617776 79.177917791779180 20.252025202520258 78.067806780678097 20.252025202520258 75.637563756375641 C20.252025202520258 74.437443744374434 19.441944194419420 71.617161716171609 18.721872187218764 69.186918691869209 L6.330633063306323 29.972997299729968 C3.450345034503471 21.122112211221122 1.920192019201977 14.671467146714690 1.920192019201977 11.161116111611136 C1.920192019201977 3.630363036303606 7.410741074107364 -1.620162016201618 15.151515151515127 -1.620162016201618 C31.683168316831711 -1.620162016201618 49.924992499249925 20.342034203420326 49.924992499249925 39.543954395439528 C49.924992499249925 48.244824482448223 45.394539453945413 53.765376537653765 37.413741374137430 53.765376537653765 C30.753075307530708 53.765376537653765 24.662466246624717 50.165016501650143 20.762076207620794 44.074407440744096 L20.462046204620492 44.254425442544232 zM26.492649264926492 3.840384038403840 L16.831683168316886 3.840384038403840 C13.291329132913233 3.840384038403840 11.521152115211521 6.660666066606666 11.521152115211521 12.061206120612042 C11.521152115211521 26.792679267926815 25.232523252325223 48.454845484548457 34.593459345934548 48.454845484548457 C37.833783378337785 48.454845484548457 40.324032403240381 44.944494449444960 40.324032403240381 40.324032403240324 C40.324032403240267 25.382538253825373 26.492649264926513 3.840384038403840 16.831683168316886 3.840384038403840 L26.492649264926513 3.840384038403840 z" />
<glyph unicode="c" horiz-adv-x="44.164416441644164" d="M36.543654365436545 15.091509150915090 L33.033303330333069 17.101710171017089 C29.162916291629131 9.480948094809492 23.192319231923193 3.840384038403840 18.661866186618681 3.840384038403840 C14.161416141614154 3.840384038403840 11.521152115211521 7.770777077707749 11.521152115211521 14.191419141914196 C11.521152115211521 29.942994299429927 21.932193219321903 48.004800480048004 31.023102310231025 48.004800480048004 C32.103210321032066 48.004800480048004 32.643264326432700 47.524752475247510 32.643264326432700 46.654665466546646 C32.643264326432700 45.784578457845782 32.643264326432700 44.824482448244794 32.643264326432700 43.204320432043232 C32.643264326432586 40.504050405040516 34.503450345034480 38.403840384038403 37.053705370537045 38.403840384038403 C40.054005400540063 38.403840384038403 42.244224422442244 40.624062406240625 42.244224422442244 43.774377437743794 C42.244224422442244 49.474947494749472 37.893789378937868 53.765376537653765 32.043204320432096 53.765376537653765 C18.151815181518145 53.765376537653765 1.920192019201977 32.433243324332409 1.920192019201977 14.281428142814264 C1.920192019201863 4.530453045304512 7.290729072907311 -1.920192019201920 15.391539153915346 -1.920192019201920 C23.612361236123661 -1.920192019201920 31.143114311431191 4.140414041404142 36.543654365436510 15.091509150915101 z" />
<glyph unicode="d" horiz-adv-x="59.525952595259525" d="M45.844584458445844 68.886888688868879 L40.054005400540063 48.214821482148238 C37.953795379537951 52.025202520252037 36.423642364236457 53.765376537653765 32.253225322532217 53.765376537653765 C18.871887188718915 53.765376537653765 1.920192019201977 31.023102310231025 1.920192019201977 13.051305130513072 C1.920192019201977 4.140414041404142 7.140714071407160 -1.920192019201920 13.831383138313868 -1.920192019201920 C19.861986198619888 -1.920192019201920 27.272727272727252 2.730273027302701 31.893189318931945 11.071107110711068 L32.643264326432700 10.861086108610834 C32.643264326432700 9.300930093009299 32.643264326432700 7.560756075607571 32.643264326432700 6.120612061206145 C32.643264326432586 0.960096009600989 35.073507350735099 -1.920192019201920 39.423942394239475 -1.920192019201920 C46.174617461746152 -1.920192019201920 51.455145514551418 4.020402040204033 55.925592559255961 16.771677167716746 L52.115211521152105 17.701770177017693 C49.504950495049457 9.420942094209408 45.724572457245699 3.840384038403840 42.814281428142863 3.840384038403840 C41.434143414341406 3.840384038403840 40.324032403240381 4.980498049804965 40.324032403240381 8.070807080708050 C40.324032403240381 12.451245124512468 41.824182418241776 20.102010201020107 47.524752475247510 41.404140414041422 L58.625862586258677 82.718271827182718 L39.423942394239475 82.718271827182718 L38.433843384338388 78.727872787278727 C45.184518451845179 78.727872787278727 47.434743474347442 78.037803780378056 47.434743474347442 76.027602760276011 C47.434743474347442 74.917491749174928 46.834683468346839 72.517251725172514 45.844584458445865 68.886888688868908 zM23.252325232523251 48.304830483048306 L33.483348334833522 48.304830483048306 C36.813681368136827 48.304830483048306 38.403840384038403 45.724572457245699 38.403840384038403 41.494149414941489 C38.403840384038403 28.442844284428418 26.882688268826882 3.840384038403840 17.851785178517844 3.840384038403840 C14.011401140114003 3.840384038403840 11.521152115211521 6.960696069606968 11.521152115211521 11.791179117911781 C11.521152115211521 26.282628262826279 23.252325232523276 48.304830483048306 33.483348334833522 48.304830483048306 L23.252325232523276 48.304830483048306 z" />
<glyph unicode="e" horiz-adv-x="46.084608460846084" d="M36.813681368136812 12.841284128412841 L33.573357335733590 14.971497149714992 C29.192919291929229 8.040804080408066 23.702370237023729 3.840384038403840 18.931893189318885 3.840384038403840 C14.131413141314169 3.840384038403840 11.521152115211521 7.710771077107722 11.521152115211521 14.971497149714992 C11.521152115211521 16.831683168316829 11.521152115211521 18.661866186618681 11.821182118211823 20.612061206120586 C29.432943294329448 24.692469246924702 44.164416441644107 36.033603360336031 44.164416441644107 45.544554455445564 C44.164416441644107 50.375037503750377 39.603960396039611 53.765376537653765 33.093309330933153 53.765376537653765 C18.271827182718312 53.765376537653765 1.920192019201977 33.363336333633356 1.920192019201977 14.881488148814867 C1.920192019201863 4.440444044404444 6.960696069606911 -1.650165016501660 15.811581158115814 -1.650165016501660 C23.942394239423948 -1.650165016501660 31.233123312331259 3.330333033303305 36.813681368136827 12.841284128412838 zM24.302430243024304 49.624962496249623 L31.143114311431191 49.624962496249623 C33.393339333933341 49.624962496249623 34.563456345634563 48.184818481848197 34.563456345634563 45.334533453345330 C34.563456345634563 37.173717371737155 25.292529252925306 28.772877287728761 12.781278127812811 25.202520252025181 C16.111611161116116 37.683768376837691 24.302430243024332 49.624962496249623 31.143114311431191 49.624962496249623 L24.302430243024332 49.624962496249623 z" />
<glyph unicode="f" horiz-adv-x="32.643264326432643" d="M15.211521152115210 7.200720072007201 L24.602460246024634 45.784578457845782 L34.413441344134412 45.784578457845782 L35.793579357935755 49.924992499249925 L25.712571257125660 49.924992499249925 C29.102910291029161 66.486648664866493 34.413441344134412 78.427842784278425 39.693969396939679 78.427842784278425 C45.994599459946016 78.427842784278425 41.614161416141656 69.126912691269126 49.294929492949336 69.126912691269126 C52.295229522952241 69.126912691269126 54.095409540954051 71.557155715571525 54.095409540954051 74.467446744674476 C54.095409540954051 79.087908790879055 48.394839483948431 82.568256825682568 40.594059405940584 82.568256825682568 C30.213021302130187 82.568256825682568 22.412241224122454 73.297329732973310 16.501650165016486 49.924992499249925 L6.990699069907009 49.924992499249925 L5.700570057005734 45.784578457845782 L15.301530153015278 45.784578457845782 L0.810081008100838 -12.181218121812208 C-0.510051005100536 -17.521752175217557 -3.210321032103252 -21.122112211221065 -6.300630063006338 -21.122112211221065 C-11.491149114911536 -21.122112211221065 -8.910891089108873 -13.441344134413441 -14.491449144914441 -13.441344134413441 C-17.611761176117625 -13.441344134413441 -19.411941194119436 -15.751575157515731 -19.411941194119436 -19.351935193519353 C-19.411941194119436 -23.612361236123661 -15.301530153015278 -26.882688268826882 -9.810981098109778 -26.882688268826882 C1.590159015901577 -26.882688268826882 8.400840084008337 -20.552055205520560 15.211521152115210 7.200720072007186 z" />
<glyph unicode="g" horiz-adv-x="55.685568556855685" d="M44.164416441644164 -17.971797179717967 L44.164416441644107 -6.840684068406858 C44.164416441644107 9.450945094509450 13.441344134413384 3.450345034503471 13.441344134413384 11.881188118811906 C13.441344134413384 14.041404140414045 16.021602160216048 15.061506150615060 22.262226222622303 15.061506150615060 C37.023702370237061 16.111611161116116 46.084608460846084 25.022502250225045 46.084608460846084 39.123912391239116 C46.084608460846084 41.494149414941489 46.084608460846084 42.904290429042931 46.084608460846084 44.614461446144617 C47.404740474047458 45.904590459045892 47.734773477347744 46.084608460846084 48.304830483048363 46.084608460846084 C51.455145514551418 46.084608460846084 50.975097509750981 42.244224422442244 54.965496549654972 42.244224422442244 C57.575757575757621 42.244224422442244 59.525952595259469 44.134413441344122 59.525952595259469 46.714671467146729 C59.525952595259469 50.405040504050419 55.835583558355893 53.765376537653765 51.755175517551720 53.765376537653765 C48.874887488748868 53.765376537653765 45.964596459645918 51.905190519051928 42.994299429942998 48.244824482448223 C39.603960396039611 52.025202520252037 35.703570357035687 53.765376537653765 30.633063306330655 53.765376537653765 C17.161716171617172 53.765376537653765 5.760576057605704 43.414341434143410 5.760576057605704 31.053105310531066 C5.760576057605704 25.502550255025483 8.310831083108269 21.182118211821205 13.531353135313566 17.731773177317734 L13.321332133213332 17.341734173417365 C4.740474047404746 14.851485148514826 1.920192019201977 12.451245124512468 1.920192019201977 8.820882088208805 C1.920192019201977 2.730273027302701 8.640864086408669 -0.210021002100234 23.432343234323412 -2.760276027602743 C31.683168316831711 -4.170417041704184 36.483648364836426 -7.530753075307530 36.483648364836426 -11.281128112811302 C36.483648364836426 -15.901590159015882 28.562856285628527 -21.122112211221065 17.281728172817338 -21.122112211221065 C7.800780078007847 -21.122112211221065 1.920192019201977 -17.701770177017693 1.920192019201977 -12.061206120612042 C1.920192019201977 -7.950795079507941 3.810381038103856 -4.830483048304814 7.230723072307228 -3.330333033303305 C4.980498049804965 -2.220222022202222 3.660366036603705 -1.920192019201920 2.010201020102045 -1.920192019201920 C-3.570357035703523 -1.920192019201920 -7.680768076807681 -6.030603060306021 -7.680768076807681 -11.461146114611438 C-7.680768076807681 -19.501950195019504 2.280228022802248 -24.962496249625019 16.951695169516938 -24.962496249625019 C33.573357335733590 -24.962496249625019 44.164416441644107 -17.971797179718010 44.164416441644107 -6.840684068406858 L44.164416441644107 -17.971797179718010 zM29.582958295829584 19.201920192019202 L22.802280228022823 19.201920192019202 C18.331833183318281 19.201920192019202 15.361536153615361 22.592259225922589 15.361536153615361 27.452745274527445 C15.361536153615361 37.863786378637883 23.012301230123057 49.774977497749774 29.582958295829599 49.774977497749774 C33.723372337233741 49.774977497749774 36.483648364836426 46.294629462946318 36.483648364836426 40.894089408940886 C36.483648364836426 30.003000300030010 29.582958295829599 19.201920192019202 22.802280228022823 19.201920192019202 L29.582958295829599 19.201920192019202 z" />
<glyph unicode="h" horiz-adv-x="57.605760576057605" d="M37.563756375637567 37.443744374437443 L35.403540354035385 30.633063306330655 C29.942994299429984 13.861386138613852 28.802880288028859 9.240924092409216 28.802880288028746 4.710471047104704 C28.802880288028746 0.090009000900068 30.303030303030255 -1.920192019201920 33.933393339333975 -1.920192019201920 C40.654065406540667 -1.920192019201920 49.804980498049758 4.680468046804663 54.005400540053984 12.601260126012619 L51.215121512151200 14.731473147314716 C46.984698469846990 9.180918091809190 42.544254425442546 5.760576057605761 39.693969396939679 5.760576057605761 C38.823882388238871 5.760576057605761 38.403840384038403 6.570657065706541 38.403840384038403 8.070807080708050 C38.403840384038403 9.270927092709258 38.703870387038705 10.081008100810095 43.894389438943904 24.722472247224744 C46.714671467146673 32.373237323732383 48.004800480048061 38.223822382238211 48.004800480048061 42.664266426642655 C48.004800480048061 49.804980498049815 44.494449444944507 53.765376537653765 38.193819381938169 53.765376537653765 C32.043204320432096 53.765376537653765 26.222622262226196 50.165016501650143 21.932193219321903 43.954395439543930 L21.632163216321601 44.164416441644164 L33.033303330333069 82.718271827182718 L12.601260126012562 82.718271827182718 L11.911191119111891 78.727872787278727 C18.691869186918666 78.727872787278727 20.792079207920779 77.827782778277822 20.792079207920779 75.097509750975064 C20.792079207920779 73.687368736873680 20.192019201920175 71.017101710171005 19.291929192919270 67.716771677167685 L-0.510051005100536 0.000000000000000 L7.890789078907915 0.000000000000000 L10.201020102010148 6.840684068406858 C20.012001200120039 36.003600360035989 27.542754275427569 48.304830483048306 35.763576357635770 48.304830483048306 C37.683768376837634 48.304830483048306 38.403840384038403 47.194719471947224 38.403840384038403 44.074407440744096 C38.403840384038403 41.074107410741078 37.563756375637581 37.443744374437415 35.403540354035385 30.633063306330655 L37.563756375637581 37.443744374437415 z" />
<glyph unicode="i" horiz-adv-x="34.563456345634563" d="M13.051305130513050 33.183318331833185 L9.060906090609024 19.861986198619888 C6.930693069306926 12.781278127812755 5.760576057605704 8.520852085208503 5.760576057605704 4.560456045604553 C5.760576057605704 -0.030003000300042 7.590759075907613 -1.920192019201920 11.341134113411385 -1.920192019201920 C19.921992199219972 -1.920192019201920 27.722772277227705 8.190819081908217 30.843084308430889 14.821482148214841 L27.632763276327637 16.591659165916610 C26.102610261026143 13.771377137713785 20.642064206420628 5.760576057605761 16.621662166216652 5.760576057605761 C15.721572157215746 5.760576057605761 15.361536153615361 6.900690069006885 15.361536153615361 8.160816081608175 C15.361536153615361 10.141014101410121 16.891689168916855 14.791479147914799 17.371737173717406 16.231623162316225 L20.882088208820846 26.672667266726648 C24.392439243924400 37.233723372337238 26.882688268826882 43.744374437443753 26.882688268826882 47.794779477947770 C26.882688268826882 52.265226522652256 25.052505250525087 53.765376537653765 21.542154215421533 53.765376537653765 C15.121512151215143 53.765376537653765 6.450645064506489 44.854485448544835 3.570357035703523 39.093909390939075 L6.420642064206390 37.233723372337238 C7.470747074707447 39.423942394239418 12.091209120912140 46.084608460846084 14.791479147914742 46.084608460846084 C15.091509150915044 46.084608460846084 15.361536153615361 45.574557455745548 15.361536153615361 43.684368436843670 C15.361536153615361 41.824182418241833 14.731473147314773 38.583858385838596 13.051305130513015 33.183318331833163 zM24.212421242124211 71.047104710471046 L27.722772277227705 71.047104710471046 C31.473147314731477 71.047104710471046 34.563456345634563 73.927392739273955 34.563456345634563 77.647764776477629 C34.563456345634563 81.278127812781293 31.683168316831711 84.488448844884488 27.752775277527803 84.488448844884488 C24.002400240024031 84.488448844884488 21.122112211221065 81.398139813981402 21.122112211221065 77.557755775577562 C21.122112211221065 73.717371737173721 24.212421242124265 71.047104710471046 27.722772277227705 71.047104710471046 L24.212421242124265 71.047104710471046 z" />
<glyph unicode="j" horiz-adv-x="30.723072307230723" d="M20.372037203720371 71.047104710471046 L23.882388238823864 71.047104710471046 C27.632763276327637 71.047104710471046 30.723072307230723 73.927392739273955 30.723072307230723 77.647764776477629 C30.723072307230723 81.278127812781293 27.542754275427569 84.488448844884488 23.162316231623208 84.488448844884488 C19.831983198319790 84.488448844884488 17.281728172817338 81.398139813981402 17.281728172817338 77.557755775577562 C17.281728172817338 73.717371737173721 20.372037203720424 71.047104710471046 23.882388238823864 71.047104710471046 L20.372037203720424 71.047104710471046 zM11.341134113411343 33.423342334233425 L0.240024002400219 -12.181218121812208 C-1.080108010801041 -17.521752175217557 -3.660366036603705 -21.122112211221065 -6.870687068706843 -21.122112211221065 C-10.681068106810699 -21.122112211221065 -9.570957095709559 -13.441344134413441 -15.061506150615060 -13.441344134413441 C-18.151815181518145 -13.441344134413441 -19.951995199519956 -15.781578157815773 -19.951995199519956 -19.471947194719519 C-19.951995199519956 -23.672367236723630 -15.841584158415799 -26.882688268826882 -10.351035103510412 -26.882688268826882 C-0.780078007800739 -26.882688268826882 8.550855085508601 -15.481548154815471 11.791179117911838 -3.900390039003923 L20.132013201320092 26.702670267026690 C22.952295229522974 36.963696369636978 24.962496249624905 44.284428442844273 24.962496249625019 48.754875487548759 C24.962496249625019 52.145214521452147 23.552355235523578 53.765376537653765 20.222022202220273 53.765376537653765 C13.141314131413196 53.765376537653765 3.630363036303606 44.914491449144919 0.450045004500453 39.183918391839200 L3.330333033303305 37.353735373537347 C4.440444044404444 39.513951395139543 9.030903090309039 46.084608460846084 11.941194119411989 46.084608460846084 C13.051305130513015 46.084608460846084 13.441344134413384 45.364536453645371 13.441344134413384 44.014401440144013 C13.441344134413384 42.064206420642051 12.631263126312660 38.763876387638788 11.341134113411385 33.423342334233439 z" />
<glyph unicode="k" horiz-adv-x="51.845184518451845" d="M37.893789378937896 8.010801080108010 L35.973597359736004 8.010801080108024 C34.173417341734194 8.010801080108024 32.763276327632752 9.750975097509752 31.383138313831410 13.591359135913592 L26.282628262826279 27.032703270327033 L28.832883288328844 28.262826282628282 C39.603960396039611 33.333333333333314 46.084608460846084 40.174017401740173 46.084608460846084 46.474647464746454 C46.084608460846084 52.145214521452147 42.334233423342312 55.685568556855685 36.393639363936359 55.685568556855685 C30.483048304830504 55.685568556855685 25.472547254725441 52.385238523852365 21.692169216921684 45.994599459946016 L21.272127212721216 46.084608460846084 L31.683168316831711 82.568256825682568 L11.791179117911838 82.568256825682568 L10.891089108910933 79.057905790579071 C18.181818181818130 79.057905790579071 20.192019201920175 78.307830783078316 20.192019201920175 75.667566756675683 C20.192019201920175 74.857485748574845 19.981998199819941 73.867386738673872 19.501950195019504 71.947194719471952 L0.180018001800136 0.000000000000000 L9.270927092709258 0.000000000000000 L15.571557155715595 22.052205220522069 L17.791779177917761 23.072307230723084 L24.482448244824468 6.270627062706296 C27.002700270027049 0.090009000900068 28.682868286828693 -1.920192019201920 31.893189318931945 -1.920192019201920 C36.753675367536744 -1.920192019201920 41.524152415241474 3.540354035403539 46.084608460846084 14.221422142214237 L43.864386438643805 15.631563156315622 C40.504050405040516 10.561056105610589 37.893789378937868 8.010801080108024 35.973597359736004 8.010801080108024 L37.893789378937868 8.010801080108024 zM28.082808280828083 31.233123312331234 L16.471647164716501 27.152715271527143 C19.471947194719519 38.343834383438320 26.882688268826882 48.004800480048004 32.373237323732383 48.004800480048004 C34.983498349835031 48.004800480048004 36.483648364836426 46.474647464746454 36.483648364836426 43.834383438343821 C36.483648364836426 38.343834383438320 28.082808280828090 31.233123312331259 16.471647164716501 27.152715271527143 L28.082808280828090 31.233123312331259 z" />
<glyph unicode="l" horiz-adv-x="30.723072307230723" d="M18.031803180318033 69.126912691269126 L4.650465046504678 19.471947194719462 C2.610261026102648 11.581158115811604 1.920192019201977 7.290729072907311 1.920192019201977 4.560456045604553 C1.920192019201977 -0.030003000300042 4.140414041404142 -1.920192019201920 8.790879087908820 -1.920192019201920 C15.001500150014976 -1.920192019201920 24.212421242124265 6.450645064506432 28.322832283228308 15.601560156015580 L25.322532253225290 17.341734173417365 C23.732373237323714 14.281428142814264 17.911791179117927 5.760576057605761 13.621362136213634 5.760576057605761 C12.121212121212125 5.760576057605761 11.521152115211521 6.870687068706843 11.521152115211521 8.100810081008092 C11.521152115211521 10.021002100210012 12.121212121212125 12.721272127212728 13.111311131113098 16.351635163516335 L31.023102310231025 82.568256825682568 L12.721272127212728 82.568256825682568 L11.911191119111891 79.177917791779180 C17.131713171317188 79.177917791779180 19.531953195319488 78.067806780678097 19.531953195319488 75.637563756375641 C19.531953195319488 74.407440744074393 18.631863186318583 71.587158715871567 18.031803180317979 69.126912691269126 z" />
<glyph unicode="m" horiz-adv-x="86.408640864086408" d="M70.717071707170717 42.904290429042902 L66.666666666666629 32.793279327932794 C58.745874587458729 12.601260126012619 57.605760576057605 9.210921092109231 57.605760576057605 5.850585058505828 C57.605760576057605 1.140114011401124 59.615961596159650 -1.920192019201920 62.736273627362721 -1.920192019201920 C68.676867686768674 -1.920192019201920 79.867986798679908 7.320732073207296 84.638463846384639 16.261626162616267 L82.028202820281990 17.701770177017693 C75.577557755775615 9.540954095409518 71.617161716171609 5.760576057605761 69.606960696069564 5.760576057605761 C67.926792679267919 5.760576057605761 67.206720672067149 6.270627062706296 67.206720672067149 7.710771077107722 C67.206720672067149 10.051005100510054 67.656765676567602 11.581158115811604 72.967296729672967 25.562556255625566 C77.107710771077109 36.453645364536442 78.727872787278784 41.164116411641146 78.727872787278784 45.034503450345028 C78.727872787278784 51.065106510651049 76.357635763576354 53.765376537653765 71.587158715871624 53.765376537653765 C64.266426642664328 53.765376537653765 58.295829582958277 48.694869486948676 50.435043504350460 35.853585358535838 L50.225022502250226 36.153615361536140 C51.455145514551418 40.954095409540969 51.845184518451788 42.874287428742889 51.845184518451788 44.824482448244794 C51.845184518451788 50.345034503450336 48.904890489048853 53.765376537653765 43.954395439543987 53.765376537653765 C36.843684368436811 53.765376537653765 29.942994299429984 47.794779477947770 23.642364236423646 36.273627362736249 L23.342334233423344 36.573657365736551 C24.482448244824468 39.723972397239720 24.962496249624905 42.694269426942697 24.962496249625019 45.964596459645975 C24.962496249625019 51.575157515751584 23.432343234323412 53.765376537653765 19.291929192919270 53.765376537653765 C11.941194119411989 53.765376537653765 6.270627062706240 47.194719471947224 1.590159015901577 33.423342334233439 L4.590459045904595 31.893189318931888 C7.470747074707447 40.564056405640542 12.691269126912744 48.304830483048306 15.571557155715595 48.304830483048306 C16.681668166816735 48.304830483048306 17.281728172817338 47.284728472847291 17.281728172817338 45.454545454545439 C17.281728172817338 42.874287428742889 15.991599159915950 38.283828382838294 10.981098109811001 22.772277227722782 L3.570357035703523 0.000000000000000 L12.391239123912442 0.000000000000000 L20.882088208820846 22.472247224722480 C25.622562256225592 35.043504350435057 36.243624362436208 48.304830483048306 41.584158415841557 48.304830483048306 C43.234323432343217 48.304830483048306 44.164416441644107 47.194719471947224 44.164416441644107 45.244524452445262 C44.164416441644107 42.454245424542478 42.514251425142561 36.903690369036894 36.693669366936660 19.981998199819998 L29.852985298529802 0.000000000000000 L39.603960396039611 0.000000000000000 C47.404740474047458 23.162316231623151 49.204920492049155 27.812781278127829 53.105310531053078 34.263426342634261 C58.535853585358495 43.264326432643259 63.396339633963407 48.304830483048306 66.816681668166780 48.304830483048306 C69.786978697869813 48.304830483048306 71.047104710471103 47.584758475847593 71.047104710471103 45.664566456645673 C71.047104710471103 43.924392439243945 70.717071707170703 42.904290429042931 66.666666666666629 32.793279327932794 L70.717071707170703 42.904290429042931 z" />
<glyph unicode="n" horiz-adv-x="63.366336633663366" d="M36.813681368136812 48.304830483048306 L43.294329432943300 48.304830483048306 C45.154515451545194 48.304830483048306 46.084608460846084 47.164716471647182 46.084608460846084 44.824482448244794 C46.084608460846084 42.364236423642353 45.364536453645314 39.813981398139845 42.844284428442847 32.793279327932794 C35.403540354035385 12.301230123012317 34.563456345634563 9.750975097509752 34.563456345634563 5.970597059705995 C34.563456345634563 1.230123012301249 36.573657365736608 -1.920192019201920 39.753975397539762 -1.920192019201920 C45.244524452445262 -1.920192019201920 55.625562556255659 6.300630063006281 60.096009600960087 14.221422142214237 L57.485748574857439 15.661566156615663 C51.395139513951335 8.730873087308737 47.974797479747963 5.760576057605761 46.084608460846084 5.760576057605761 C44.734473447344726 5.760576057605761 44.164416441644107 6.270627062706296 44.164416441644107 7.290729072907311 C44.164416441644107 9.840984098409820 46.564656465646522 16.381638163816376 49.924992499249925 25.562556255625566 C54.395439543954353 37.713771377137732 55.685568556855742 42.094209420942093 55.685568556855742 45.664566456645673 C55.685568556855742 50.855085508550872 52.475247524752490 53.765376537653765 46.684668466846688 53.765376537653765 C38.013801380138034 53.765376537653765 30.843084308430889 48.304830483048306 23.672367236723630 36.273627362736249 L23.342334233423344 36.573657365736551 C24.482448244824468 39.423942394239418 24.962496249624905 42.394239423942395 24.962496249625019 45.844584458445865 C24.962496249625019 51.545154515451543 23.432343234323412 53.765376537653765 19.291929192919270 53.765376537653765 C11.941194119411989 53.765376537653765 6.270627062706240 47.194719471947224 1.590159015901577 33.423342334233439 L4.590459045904595 31.893189318931888 C7.200720072007243 40.144014401440131 12.571257125712577 48.304830483048306 15.571557155715595 48.304830483048306 C16.681668166816735 48.304830483048306 17.281728172817338 47.284728472847291 17.281728172817338 45.544554455445564 C17.281728172817338 42.964296429642957 15.691569156915648 37.293729372937264 10.981098109811001 22.772277227722782 L3.570357035703523 0.000000000000000 L12.391239123912442 0.000000000000000 L20.012001200120039 19.801980198019805 C25.592559255925607 34.143414341434152 36.813681368136827 48.304830483048306 43.294329432943300 48.304830483048306 L36.813681368136827 48.304830483048306 z" />
<glyph unicode="o" horiz-adv-x="51.845184518451845" d="M9.360936093609361 -1.620162016201618 L18.541854185418515 -1.620162016201618 C33.213321332133205 -1.620162016201618 48.004800480047948 17.791779177917817 48.004800480048061 34.983498349834974 C48.004800480048061 46.324632463246303 40.894089408940886 53.765376537653765 31.023102310231025 53.765376537653765 C16.231623162316282 53.765376537653765 1.920192019201977 36.393639363936416 1.920192019201977 19.111911191119134 C1.920192019201863 6.120612061206145 9.360936093609325 -1.620162016201618 18.541854185418515 -1.620162016201618 L9.360936093609325 -1.620162016201618 zM27.992799279927993 3.840384038403840 L18.361836183618379 3.840384038403840 C14.401440144014373 3.840384038403840 11.521152115211521 6.660666066606666 11.521152115211521 14.161416141614154 C11.521152115211521 29.102910291029104 21.392139213921382 49.624962496249623 31.023102310231025 49.624962496249623 C35.523552355235552 49.624962496249623 38.403840384038403 47.314731473147333 38.403840384038403 40.234023402340256 C38.403840384038403 24.962496249624962 27.992799279928022 3.840384038403840 18.361836183618379 3.840384038403840 L27.992799279928022 3.840384038403840 z" />
<glyph unicode="p" horiz-adv-x="55.685568556855685" d="M1.650165016501649 36.663666366636662 L4.350435043504376 33.903390339033876 C8.340834083408367 38.133813381338143 13.051305130513015 41.884188418841859 18.151815181518145 44.464446444644466 L0.030003000299985 -16.441644164416402 C-0.960096009600989 -19.891989198919873 -3.150315031503169 -20.972097209720914 -8.760876087608722 -20.972097209720914 L-9.360936093609325 -24.962496249625019 L18.931893189318885 -24.962496249625019 L19.531953195319488 -20.972097209720914 C12.631263126312660 -20.972097209720914 10.231023102310246 -19.801980198019805 10.231023102310246 -16.531653165316584 C10.231023102310246 -15.541554155415554 10.441044104410480 -14.251425142514222 11.011101110110985 -12.301230123012317 L14.641464146414592 1.440144014401426 C34.083408340834126 3.990399039903991 51.845184518451788 18.211821182118229 51.845184518451788 35.583558355835578 C51.845184518451788 47.014701470147031 45.544554455445564 53.765376537653765 34.743474347434699 53.765376537653765 C32.643264326432700 53.765376537653765 30.543054305430587 53.465346534653463 28.442844284428475 53.075307530753093 L31.953195319531915 65.286528652865286 L24.332433243324317 65.286528652865286 L19.621962196219670 49.504950495049513 C12.931293129312962 46.744674467446771 6.540654065406557 42.184218421842161 1.650165016501660 36.663666366636676 zM30.453045304530452 48.004800480048004 L32.133213321332164 48.004800480048004 C38.253825382538253 48.004800480048004 42.244224422442244 42.874287428742889 42.244224422442244 34.983498349834974 C42.244224422442244 20.762076207620737 29.252925292529198 8.250825082508243 15.841584158415799 5.670567056705693 L27.152715271527200 47.524752475247510 C28.742874287428776 47.794779477947770 30.453045304530406 48.004800480048004 32.133213321332164 48.004800480048004 L30.453045304530406 48.004800480048004 z" />
<glyph unicode="q" horiz-adv-x="53.765376537653765" d="M29.912991299129914 7.590759075907592 L22.622262226222574 -16.591659165916553 C21.632163216321601 -19.921992199219972 19.321932193219368 -20.972097209720914 13.831383138313868 -20.972097209720914 L13.231323132313264 -24.962496249625019 L39.033903390338992 -24.962496249625019 L39.633963396339595 -20.972097209720914 C33.723372337233741 -20.972097209720914 31.923192319231930 -19.921992199219972 31.923192319231930 -17.611761176117625 C31.923192319231930 -16.801680168016787 32.133213321332164 -15.901590159015882 32.613261326132601 -14.101410141014071 L51.035103510351064 53.765376537653765 L43.414341434143466 53.765376537653765 L41.014101410141052 46.384638463846386 C38.103810381038102 51.575157515751584 35.013501350135016 53.765376537653765 30.423042304230421 53.765376537653765 C16.801680168016787 53.765376537653765 1.920192019201977 32.763276327632752 1.920192019201977 14.311431143114305 C1.920192019201863 4.050405040504074 6.420642064206390 -1.920192019201920 14.221422142214237 -1.920192019201920 C20.522052205220575 -1.920192019201920 26.012601260125962 1.470147014701468 29.612961296129583 7.770777077707749 L29.912991299129885 7.590759075907613 zM22.322232223222322 48.304830483048306 L30.933093309330957 48.304830483048306 C34.623462346234646 48.304830483048306 36.723672367236759 44.644464446444658 36.723672367236759 37.233723372337238 C36.723672367236759 22.322232223222329 26.222622262226196 3.840384038403840 17.311731173117323 3.840384038403840 C13.411341134113400 3.840384038403840 11.521152115211521 7.200720072007186 11.521152115211521 13.591359135913592 C11.521152115211521 28.502850285028501 22.322232223222272 48.304830483048306 30.933093309330957 48.304830483048306 L22.322232223222272 48.304830483048306 z" />
<glyph unicode="r" horiz-adv-x="46.084608460846084" d="M1.470147014701471 38.763876387638760 L4.050405040504074 37.473747374737457 C5.760576057605704 41.374137413741380 11.161116111611136 46.084608460846084 13.861386138613852 46.084608460846084 C14.851485148514826 46.084608460846084 15.361536153615361 45.334533453345330 15.361536153615361 43.744374437443753 C15.361536153615361 40.954095409540969 14.161416141614154 36.393639363936416 9.060906090609024 20.582058205820601 L2.550255025502565 0.000000000000000 L11.851185118511808 0.000000000000000 L16.471647164716501 13.741374137413743 C22.502250225022522 31.743174317431738 31.533153315331560 46.084608460846084 36.753675367536744 46.084608460846084 C39.153915391539158 46.084608460846084 39.573957395739626 42.244224422442244 43.774377437743738 42.244224422442244 C47.164716471647125 42.244224422442244 49.654965496549607 44.794479447944809 49.654965496549607 48.364836483648332 C49.654965496549607 51.395139513951392 46.654665466546703 53.765376537653765 42.874287428742832 53.765376537653765 C36.993699369936962 53.765376537653765 28.202820282028256 46.534653465346537 24.962496249625019 39.183918391839200 L24.962496249625019 39.453945394539460 C24.962496249625019 42.094209420942093 24.962496249624905 44.044404440444055 24.962496249625019 46.174617461746152 C24.962496249625019 51.455145514551475 23.582358235823563 53.765376537653765 20.462046204620492 53.765376537653765 C14.971497149714992 53.765376537653765 4.590459045904595 45.514551455145522 1.470147014701524 38.763876387638788 z" />
<glyph unicode="s" horiz-adv-x="38.403840384038403" d="M7.680768076807681 47.164716471647168 L7.680768076807681 38.223822382238211 C7.680768076807681 26.642664266426664 21.122112211221179 22.532253225322506 21.122112211221065 12.181218121812208 C21.122112211221065 7.020702070206994 17.971797179718010 3.840384038403840 12.961296129612947 3.840384038403840 C9.870987098709861 3.840384038403840 9.150915091509205 4.860486048604855 8.730873087308737 9.300930093009299 C8.340834083408367 13.291329132913290 6.570657065706541 15.361536153615361 3.690369036903689 15.361536153615361 C0.690069006900671 15.361536153615361 -1.320132013201373 12.901290129012921 -1.320132013201373 8.970897089708956 C-1.320132013201373 3.630363036303606 3.960396039604007 0.000000000000000 12.001200120011958 0.000000000000000 C21.692169216921684 0.000000000000000 30.723072307230723 7.350735073507337 30.723072307230723 16.201620162016184 C30.723072307230723 29.042904290429021 17.281728172817225 34.143414341434152 17.281728172817338 42.664266426642655 C17.281728172817338 46.564656465646578 19.711971197119738 49.624962496249623 22.742274227422740 49.624962496249623 C28.142814281428173 49.624962496249623 26.072607260726045 40.324032403240324 32.523252325232534 40.324032403240324 C35.103510351035084 40.324032403240324 36.813681368136827 42.124212421242134 36.813681368136827 45.094509450945111 C36.813681368136827 50.135013501350159 31.833183318331862 53.765376537653765 25.202520252025238 53.765376537653765 C15.061506150615060 53.765376537653765 7.680768076807681 47.164716471647182 7.680768076807681 38.223822382238211 L7.680768076807681 47.164716471647182 z" />
<glyph unicode="t" horiz-adv-x="36.483648364836483" d="M23.492349234923491 44.164416441644164 L34.413441344134412 44.164416441644164 L35.793579357935755 48.304830483048306 L24.902490249024936 48.304830483048306 L30.093009300930134 65.286528652865286 L20.912091209120945 65.286528652865286 L15.691569156915648 48.304830483048306 L6.990699069907009 48.304830483048306 L5.700570057005734 44.164416441644164 L14.311431143114305 44.164416441644164 L6.900690069006942 19.411941194119436 C4.590459045904595 11.521152115211521 3.810381038103856 7.200720072007186 3.810381038103856 4.560456045604553 C3.810381038103856 -0.030003000300042 5.790579057905802 -1.920192019201920 10.411041104110382 -1.920192019201920 C16.891689168916855 -1.920192019201920 26.792679267926815 6.420642064206447 31.413141314131394 15.571557155715595 L28.502850285028444 17.281728172817282 C26.702670267026747 14.251425142514222 20.102010201020107 5.760576057605761 15.391539153915346 5.760576057605761 C13.891389138913837 5.760576057605761 13.411341134113400 6.870687068706843 13.411341134113400 8.070807080708050 C13.501350135013467 9.990999099909971 14.101410141014071 12.721272127212728 15.211521152115210 16.351635163516335 L23.492349234923495 44.164416441644164 z" />
<glyph unicode="u" horiz-adv-x="59.525952595259525" d="M20.612061206120611 5.760576057605761 L16.201620162016184 5.760576057605761 C14.611461146114607 5.760576057605761 13.441344134413384 6.720672067206692 13.441344134413384 9.360936093609382 C13.441344134413384 13.711371137113701 15.421542154215444 19.081908190819092 18.001800180017995 25.772577257725743 C22.082208220822054 36.303630363036291 24.962496249624905 43.954395439543930 24.962496249625019 48.814881488148785 C24.962496249625019 51.965196519651954 23.312331233123359 53.765376537653765 20.342034203420326 53.765376537653765 C13.981398139814019 53.765376537653765 5.370537053705334 45.724572457245699 1.440144014401426 38.163816381638185 L4.020402040203976 36.723672367236702 C9.360936093609325 43.744374437443753 12.301230123012260 46.744674467446771 13.921392139213935 46.744674467446771 C15.211521152115210 46.744674467446771 15.361536153615361 46.114611461146126 15.361536153615361 45.604560456045590 C15.361536153615361 43.444344434443451 13.651365136513618 39.003900390039007 8.850885088508903 26.732673267326732 C6.450645064506489 20.522052205220518 3.840384038403840 13.111311131113098 3.840384038403840 7.320732073207296 C3.840384038403840 2.070207020702071 5.880588058805870 -1.920192019201920 11.671167116711672 -1.920192019201920 C17.851785178517844 -1.920192019201920 24.752475247524785 1.770177017701769 32.313231323132300 14.821482148214841 L32.643264326432700 14.521452145214539 C32.643264326432586 11.941194119411932 32.643264326432700 9.060906090609080 32.643264326432700 6.780678067806775 C32.643264326432586 1.260126012601290 33.663366336633658 -1.920192019201920 37.173717371737212 -1.920192019201920 C44.044404440444055 -1.920192019201920 52.055205520552022 7.140714071407160 55.535553555355591 16.201620162016184 L52.535253525352573 17.731773177317734 C49.924992499249925 11.551155115511563 44.824482448244794 5.760576057605761 42.124212421242078 5.760576057605761 C40.924092409240984 5.760576057605761 40.324032403240381 6.780678067806775 40.324032403240381 8.430843084308435 C40.324032403240381 11.011101110110985 41.824182418241776 16.291629162916308 46.114611461146069 30.123012301230119 L53.525352535253546 53.765376537653765 L44.224422442244190 53.765376537653765 L36.663666366636676 33.243324332433247 C31.443144314431493 19.081908190819092 20.612061206120643 5.760576057605761 16.201620162016184 5.760576057605761 L20.612061206120643 5.760576057605761 z" />
<glyph unicode="v" horiz-adv-x="57.605760576057605" d="M46.084608460846084 40.624062406240625 L46.084608460846084 34.773477347734797 C46.084608460846084 23.192319231923193 34.293429342934246 5.760576057605761 26.432643264326430 5.760576057605761 C22.172217221722121 5.760576057605761 19.201920192019202 10.441044104410423 19.201920192019202 17.341734173417365 C19.201920192019202 26.552655265526539 24.032403240324015 38.673867386738664 30.693069306930738 46.174617461746152 C35.073507350735099 51.035103510351064 35.193519351935151 51.125112511251132 35.193519351935151 52.235223522352214 C35.193519351935151 53.225322532253244 34.413441344134412 53.765376537653765 33.003300330032971 53.765376537653765 C31.263126312631243 53.765376537653765 30.813081308130791 53.495349534953505 27.752775277527803 51.275127512751283 C26.552655265526596 50.285028502850309 25.562556255625509 49.924992499249925 24.032403240324015 49.924992499249925 C19.981998199819941 49.924992499249925 18.421842184218463 53.765376537653765 13.291329132913233 53.765376537653765 C7.230723072307228 53.765376537653765 1.920192019201977 47.824782478247812 1.920192019201977 41.074107410741078 C1.920192019201977 37.023702370237004 4.140414041404142 34.563456345634563 7.920792079207899 34.563456345634563 C10.021002100210012 34.563456345634563 11.521152115211521 36.393639363936416 11.521152115211521 38.943894389438924 C11.521152115211521 42.424242424242436 9.600960096009658 43.384338433843368 9.600960096009658 46.114611461146126 C9.600960096009658 47.224722472247208 9.600960096009658 47.374737473747359 9.600960096009658 48.004800480048004 C12.211221122112192 48.004800480048004 13.711371137113701 42.244224422442244 20.522052205220575 42.244224422442244 L20.732073207320695 41.944194419441942 C13.621362136213634 31.083108310831108 9.600960096009658 20.342034203420326 9.600960096009658 12.781278127812755 C9.600960096009658 4.350435043504376 14.701470147014675 -1.920192019201920 21.602160216021616 -1.920192019201920 C37.443744374437415 -1.920192019201920 55.685568556855628 22.712271227122699 55.685568556855742 44.224422442244247 C55.685568556855742 50.945094509450939 53.825382538253848 53.765376537653765 49.294929492949336 53.765376537653765 C45.934593459345933 53.765376537653765 44.164416441644107 51.905190519051928 44.164416441644107 48.424842484248416 C44.164416441644107 43.984398439843972 46.084608460846084 40.624062406240625 46.084608460846084 34.773477347734797 L46.084608460846084 40.624062406240625 z" />
<glyph unicode="w" horiz-adv-x="84.488448844884488" d="M34.233423342334234 1.620162016201618 L39.963996399639996 8.010801080108024 C42.124212421242078 1.500150015001509 46.474647464746454 -1.920192019201920 52.175217521752188 -1.920192019201920 C66.576657665766561 -1.920192019201920 82.568256825682511 22.082208220822054 82.568256825682511 43.864386438643862 C82.568256825682511 50.885088508850913 80.708070807080730 53.765376537653765 76.177617761776219 53.765376537653765 C72.817281728172816 53.765376537653765 71.047104710471103 51.905190519051928 71.047104710471103 48.424842484248416 C71.047104710471103 43.774377437743794 72.967296729672967 41.164116411641146 72.967296729672967 34.473447344734495 C72.967296729672967 21.602160216021616 63.936393639363928 5.760576057605761 56.585658565856534 5.760576057605761 C52.625262526252641 5.760576057605761 48.964896489648936 10.381038103810397 47.734773477347744 16.861686168616870 C55.355535553555342 27.902790279027897 59.525952595259469 38.433843384338445 59.525952595259469 45.964596459645975 C59.525952595259469 51.515151515151501 56.345634563456315 53.765376537653765 53.075307530753093 53.765376537653765 C45.724572457245699 53.765376537653765 38.403840384038403 38.553855385538554 38.403840384038403 23.552355235523578 C38.403840384038403 21.092109210921080 38.403840384038403 17.941794179417911 38.403840384038403 15.061506150615060 C33.303330333033273 8.550855085508545 28.562856285628527 4.770477047704787 25.172517251725139 4.770477047704787 C21.452145214521465 4.770477047704787 19.201920192019202 8.730873087308737 19.201920192019202 15.331533153315320 C19.201920192019202 24.482448244824468 23.402340234023427 36.663666366636676 30.963096309630942 46.024602460246001 C34.593459345934548 50.495049504950487 34.983498349835031 51.035103510351064 34.983498349835031 51.965196519651954 C34.983498349835031 53.135313531353120 34.293429342934246 53.765376537653765 32.913291329132903 53.765376537653765 C31.053105310531009 53.765376537653765 29.672967296729666 52.595259525952599 28.322832283228308 51.275127512751283 C27.152715271527200 50.195019501950185 26.462646264626414 49.924992499249925 25.382538253825373 49.924992499249925 C21.182118211821148 49.924992499249925 19.501950195019504 53.765376537653765 13.711371137113701 53.765376537653765 C7.470747074707447 53.765376537653765 1.920192019201977 47.734773477347744 1.920192019201977 41.074107410741078 C1.920192019201977 37.023702370237004 4.140414041404142 34.563456345634563 7.920792079207899 34.563456345634563 C10.021002100210012 34.563456345634563 11.521152115211521 36.393639363936416 11.521152115211521 38.943894389438924 C11.521152115211521 42.574257425742587 9.600960096009658 43.594359435943602 9.600960096009658 46.444644464446469 C9.600960096009658 47.464746474647484 9.840984098409876 48.004800480048004 10.231023102310246 48.004800480048004 C13.291329132913233 48.004800480048004 14.851485148514826 42.244224422442244 22.322232223222272 42.244224422442244 L22.532253225322506 41.944194419441942 C13.921392139213935 29.882988298829900 9.600960096009658 19.501950195019504 9.600960096009658 10.891089108910876 C9.600960096009658 2.820282028202826 14.011401140114003 -1.920192019201920 21.362136213621397 -1.920192019201920 C27.662766276627622 -1.920192019201920 34.233423342334277 1.620162016201618 39.963996399639996 8.010801080108024 L34.233423342334277 1.620162016201618 zM49.654965496549657 29.402940294029403 L46.444644464446469 23.462346234623453 C46.084608460846084 24.992499249925004 46.084608460846084 26.642664266426664 46.084608460846084 28.502850285028501 C46.084608460846084 38.163816381638185 48.154815481548212 46.084608460846084 50.465046504650445 46.084608460846084 C51.485148514851517 46.084608460846084 51.845184518451788 44.404440444044383 51.845184518451788 41.494149414941489 C51.845184518451788 35.463546354635469 49.654965496549607 29.402940294029406 46.444644464446469 23.462346234623453 L49.654965496549607 29.402940294029406 z" />
<glyph unicode="x" horiz-adv-x="57.605760576057605" d="M30.453045304530452 22.172217221722171 L31.863186318631847 28.502850285028501 C34.353435343534329 39.903990399039913 39.243924392439226 48.004800480048004 43.534353435343519 48.004800480048004 C47.644764476447676 48.004800480048004 45.124512451245096 40.324032403240324 50.855085508550815 40.324032403240324 C53.855385538553833 40.324032403240324 55.835583558355893 42.604260426042629 55.835583558355893 45.904590459045892 C55.835583558355893 50.285028502850309 52.145214521452090 53.765376537653765 47.554755475547609 53.765376537653765 C42.544254425442546 53.765376537653765 36.543654365436510 49.534953495349555 32.643264326432700 43.264326432643259 C32.643264326432700 49.234923492349253 28.832883288328844 53.765376537653765 23.852385238523880 53.765376537653765 C17.551755175517542 53.765376537653765 7.050705070507092 45.244524452445262 3.450345034503471 37.203720372037196 L6.450645064506489 35.313531353135318 C10.741074107410782 41.974197419741984 17.971797179718010 48.004800480048004 21.662166216621699 48.004800480048004 C23.762376237623812 48.004800480048004 24.962496249625019 46.024602460246001 24.962496249625019 42.364236423642353 C24.962496249624905 39.933993399339954 24.362436243624416 36.663666366636676 23.162316231623208 32.493249324932492 L20.372037203720424 22.652265226522672 C17.071707170717104 11.251125112511261 12.151215121512109 3.840384038403840 7.860786078607816 3.840384038403840 C3.240324032403237 3.840384038403840 6.450645064506489 11.521152115211521 -0.150015001500151 11.521152115211521 C-3.750375037503773 11.521152115211521 -6.030603060306021 9.210921092109231 -6.030603060306021 5.760576057605761 C-6.030603060306021 1.290129012901275 -2.430243024302399 -1.920192019201920 2.760276027602799 -1.920192019201920 C9.240924092409273 -1.920192019201920 16.441644164416402 2.760276027602743 20.432043204320394 9.510951095109533 L20.732073207320695 9.420942094209408 C21.542154215421533 2.370237023702373 25.742574257425758 -1.920192019201920 31.833183318331862 -1.920192019201920 C39.033903390338992 -1.920192019201920 47.554755475547609 4.140414041404142 52.355235523552324 12.781278127812755 L49.354935493549306 14.641464146414648 C43.144314431443149 7.170717071707145 38.553855385538554 3.840384038403840 34.143414341434095 3.840384038403840 C30.543054305430587 3.840384038403840 28.862886288628829 5.940594059405953 28.862886288628829 10.561056105610533 C28.862886288628829 13.561356135613551 29.372937293729365 17.311731173117323 30.453045304530406 22.172217221722178 z" />
<glyph unicode="y" horiz-adv-x="51.845184518451845" d="M16.921692169216922 29.312931293129314 L22.322232223222272 0.510051005100536 C19.321932193219368 -8.310831083108326 7.620762076207598 -21.122112211221065 2.610261026102648 -21.122112211221065 C-1.200120012001207 -21.122112211221065 0.210021002100234 -13.441344134413441 -5.190519051905199 -13.441344134413441 C-8.160816081608118 -13.441344134413441 -10.261026102610231 -15.781578157815773 -10.261026102610231 -19.171917191719217 C-10.261026102610231 -23.462346234623510 -6.660666066606609 -26.882688268826882 -1.170117011701223 -26.882688268826882 C6.360636063606307 -26.882688268826882 15.121512151215143 -20.492049204920477 25.382538253825373 -7.170717071707145 C38.913891389138939 10.291029102910272 51.845184518451788 35.883588358835880 51.845184518451788 46.954695469546948 C51.845184518451788 50.585058505850611 49.984998499850008 53.765376537653765 46.024602460246001 53.765376537653765 C43.264326432643315 53.765376537653765 40.324032403240381 51.725172517251735 40.324032403240381 47.254725472547250 C40.324032403240381 44.974497449744945 40.324032403240381 38.883888388838898 40.324032403240381 36.183618361836182 C40.324032403240267 27.872787278727856 34.713471347134714 16.891689168916912 30.033003300330051 10.441044104410423 L29.612961296129583 10.441044104410423 L26.222622262226196 26.582658265826581 C24.332433243324317 35.613561356135619 22.322232223222272 42.934293429342915 20.732073207320695 47.134713471347141 C18.811881188118832 52.175217521752188 17.221722172217255 53.765376537653765 14.731473147314773 53.765376537653765 C8.820882088208805 53.765376537653765 2.700270027002716 45.154515451545137 -0.090009000900068 33.003300330032971 L3.630363036303606 31.953195319531972 C5.730573057305719 40.354035403540365 7.740774077407764 44.164416441644164 10.231023102310246 44.164416441644164 C12.631263126312660 44.164416441644164 14.821482148214841 40.564056405640542 16.921692169216954 29.312931293129338 z" />
<glyph unicode="z" horiz-adv-x="51.845184518451845" d="M16.621662166216623 15.661566156615661 L43.084308430843066 41.254125412541271 C49.084908490849102 47.134713471347141 49.684968496849706 48.244824482448223 49.684968496849706 50.465046504650445 C49.684968496849706 52.475247524752490 48.574857485748566 53.765376537653765 46.774677467746756 53.765376537653765 C42.394239423942395 53.765376537653765 43.474347434743436 46.084608460846084 38.883888388838841 46.084608460846084 C33.993399339933944 46.084608460846084 31.383138313831410 53.765376537653765 21.482148214821450 53.765376537653765 C12.631263126312660 53.765376537653765 5.760576057605704 47.344734473447375 5.760576057605704 39.183918391839200 C5.760576057605704 35.103510351035084 8.010801080107967 32.643264326432643 11.761176117611740 32.643264326432643 C15.241524152415195 32.643264326432643 17.281728172817338 34.053405340534027 17.281728172817338 36.423642364236400 C17.281728172817338 41.044104410441037 11.521152115211521 40.174017401740173 11.521152115211521 44.224422442244247 C11.521152115211521 46.534653465346537 13.111311131113098 48.004800480048004 15.601560156015580 48.004800480048004 C21.362136213621397 48.004800480048004 28.442844284428475 38.403840384038403 33.783378337833824 38.403840384038403 L33.993399339933944 38.103810381038102 L6.450645064506489 11.881188118811906 C1.950195019501962 7.560756075607571 -0.150015001500151 5.310531053105308 -0.150015001500151 2.850285028502867 C-0.150015001500151 1.050105010501056 1.050105010501056 0.000000000000000 3.150315031503169 0.000000000000000 C8.610861086108571 0.000000000000000 5.850585058505885 7.680768076807681 10.801080108010751 7.680768076807681 C16.891689168916855 7.680768076807681 20.792079207920779 -1.920192019201920 30.273027302730270 -1.920192019201920 C38.073807380738117 -1.920192019201920 45.274527452745247 5.340534053405349 47.974797479747963 15.781578157815773 L44.584458445844575 17.101710171017089 C42.184218421842161 10.051005100510054 39.483948394839445 7.680768076807681 35.673567356735703 7.680768076807681 C29.462946294629432 7.680768076807681 22.742274227422740 15.361536153615361 16.831683168316886 15.361536153615361 L16.621662166216652 15.661566156615663 z" />
<glyph unicode="{" horiz-adv-x="34.563456345634563" d="M12.571257125712570 -0.390039003900391 L18.061806180618078 19.411941194119436 C18.781878187818734 22.022202220222027 19.201920192019202 24.332433243324317 19.201920192019202 26.222622262226196 C19.201920192019202 30.213021302130187 17.221722172217255 32.613261326132601 11.521152115211521 33.603360336033575 L11.611161116111589 34.113411341134110 C20.822082208220763 35.913591359135921 23.672367236723630 41.494149414941489 25.922592259225894 49.714971497149691 L30.843084308430889 67.596759675967576 C32.793279327932851 74.677467746774710 36.063606360636072 78.667866786678701 42.814281428142863 80.258025802580278 L43.414341434143466 82.568256825682568 C28.862886288628829 82.568256825682568 24.782478247824770 78.157815781578165 21.212121212121247 65.496549654965520 L16.321632163216350 48.004800480048004 C14.191419141914139 40.414041404140391 11.941194119411989 36.603660366036593 3.810381038103856 35.103510351035084 L3.090309030903086 32.613261326132601 C7.920792079207899 32.223222322232232 9.600960096009658 28.922892289228912 9.600960096009658 25.022502250225045 C9.600960096009658 23.312331233123302 9.270927092709258 21.422142214221424 8.760876087608722 19.621962196219613 L3.180318031803154 0.030003000300042 C2.340234023402331 -2.880288028802852 1.920192019201977 -5.160516051605157 1.920192019201977 -7.170717071707145 C1.920192019201977 -13.471347134713483 6.420642064206390 -15.361536153615361 17.191719171917157 -15.361536153615361 L17.851785178517844 -13.171317131713181 C13.291329132913233 -11.881188118811906 11.521152115211521 -9.690969096909669 11.521152115211521 -6.180618061806172 C11.521152115211521 -4.590459045904595 11.941194119411989 -2.580258025802550 12.571257125712577 -0.390039003900370 z" />
<glyph unicode="|" horiz-adv-x="34.563456345634563" d="M21.122112211221122 82.568256825682568 L13.441344134413384 82.568256825682568 L13.441344134413384 -24.962496249625019 L21.122112211221065 -24.962496249625019 L21.122112211221065 82.568256825682568 z" />
<glyph unicode="}" horiz-adv-x="34.563456345634563" d="M8.910891089108912 19.411941194119411 L3.450345034503471 -0.360036003600385 C1.530153015301494 -7.560756075607571 -1.560156015601592 -11.251125112511261 -8.850885088508903 -13.171317131713181 L-9.450945094509507 -15.361536153615361 C4.500450045004527 -15.361536153615361 9.870987098709861 -12.061206120612042 13.321332133213332 0.030003000300042 L18.901890189018900 19.621962196219613 C20.582058205820545 25.622562256225592 24.572457245724536 32.013201320131998 31.923192319231930 32.613261326132601 L32.643264326432700 35.103510351035084 C27.062706270627018 36.093609360936114 24.962496249624905 38.193819381938169 24.962496249625019 41.794179417941791 C24.962496249625019 43.504350435043534 25.382538253825373 45.484548454845481 26.102610261026143 47.974797479747963 L31.083108310831108 65.466546654665478 C32.013201320131998 68.976897689768975 32.643264326432700 71.767176717671759 32.643264326432700 74.167416741674174 C32.643264326432700 80.258025802580278 28.562856285628527 82.568256825682568 17.551755175517542 82.568256825682568 L16.891689168916855 80.258025802580278 C21.182118211821148 79.147914791479138 23.042304230423042 76.867686768676890 23.042304230423042 73.267326732673268 C23.042304230423042 71.557155715571525 22.712271227122756 69.756975697569771 22.052205220522069 67.566756675667534 L16.801680168016787 49.684968496849706 C15.901590159015882 46.804680468046797 15.361536153615361 44.194419441944206 15.361536153615361 42.004200420042025 C15.361536153615361 38.013801380138034 17.251725172517240 35.193519351935208 23.042304230423042 34.113411341134110 L22.952295229522974 33.603360336033575 C14.221422142214237 32.223222322232232 11.041104110411084 27.422742274227403 8.910891089108873 19.411941194119436 z" />
<glyph unicode="~" horiz-adv-x="53.765376537653765" d="M6.990699069906992 24.962496249624962 L10.411041104110382 24.962496249624962 C11.311131113111287 29.132913291329146 12.511251125112494 30.723072307230723 14.611461146114607 30.723072307230723 C16.711671167116720 30.723072307230723 18.901890189018900 30.363036303630338 25.292529252925306 27.962796279627980 C30.993099309931040 25.802580258025785 33.513351335133507 24.962496249624962 35.913591359135921 24.962496249624962 C38.313831383138336 24.962496249624962 40.294029402940282 26.222622262226253 42.394239423942395 29.072907290729063 C44.104410441044138 31.923192319231930 45.304530453045345 35.313531353135318 45.604560456045647 38.403840384038403 L42.304230423042327 38.403840384038403 C41.404140414041422 34.293429342934303 40.204020402040214 32.643264326432643 38.013801380138034 32.643264326432643 C35.913591359135921 32.643264326432643 33.393339333933341 33.393339333933397 28.592859285928625 35.403540354035385 C23.192319231923193 37.653765376537649 20.012001200120039 38.403840384038403 17.401740174017391 38.403840384038403 C12.511251125112494 38.403840384038403 8.100810081008149 32.733273327332711 6.990699069907009 24.962496249624962 z" />
<glyph unicode=" " horiz-adv-x="26.882688268826882" d="" />
<glyph unicode="¡" horiz-adv-x="32.643264326432643" d="M22.922292229222922 56.075607560756076 L19.321932193219368 56.075607560756055 C18.211821182118229 48.694869486948676 15.091509150915044 36.453645364536442 11.341134113411385 27.032703270327033 C6.510651065106458 14.881488148814867 4.890489048904897 10.741074107410725 4.890489048904897 5.670567056705693 C4.890489048904897 0.300030003000302 6.690669066906708 -1.920192019201920 10.381038103810397 -1.920192019201920 C15.121512151215143 -1.920192019201920 17.161716171617172 1.410141014101384 18.091809180918062 10.021002100210012 L22.922292229222876 56.075607560756055 zM27.632763276327633 78.727872787278727 L24.122412241224083 78.727872787278727 C20.372037203720424 78.727872787278727 17.281728172817338 75.847584758475818 17.281728172817338 72.127212721272144 C17.281728172817338 68.496849684968481 20.162016201620190 65.286528652865286 24.002400240024031 65.286528652865286 C27.842784278427871 65.286528652865286 30.723072307230723 68.376837683768372 30.723072307230723 72.217221722172212 C30.723072307230723 76.057605760576052 27.632763276327637 78.727872787278727 24.122412241224083 78.727872787278727 L27.632763276327637 78.727872787278727 z" />
<glyph unicode="¢" horiz-adv-x="46.084608460846084" d="M38.463846384638465 16.681668166816682 L34.953495349534933 18.661866186618681 C30.753075307530708 11.221122112211219 24.242424242424249 5.760576057605761 19.321932193219368 5.760576057605761 C14.431443144314471 5.760576057605761 11.521152115211521 9.570957095709559 11.521152115211521 15.811581158115814 C11.521152115211521 31.353135313531368 22.892289228922891 49.114911491149087 32.793279327932851 49.114911491149087 C33.963396339633960 49.114911491149087 34.563456345634563 48.634863486348650 34.563456345634563 47.734773477347744 C34.563456345634563 46.864686468646880 34.563456345634563 45.874587458745850 34.563456345634563 44.224422442244247 C34.563456345634563 41.494149414941489 36.423642364236457 39.333933393339350 38.943894389438924 39.333933393339350 C41.944194419441942 39.333933393339350 44.164416441644107 41.584158415841557 44.164416441644107 44.824482448244794 C44.164416441644107 49.324932493249321 40.354035403540365 52.835283528352818 35.163516351635167 53.615361536153614 L40.354035403540365 69.126912691269126 L35.163516351635167 69.126912691269126 L29.642964296429682 53.315331533153312 C16.201620162016184 50.465046504650445 1.920192019201977 31.923192319231930 1.920192019201977 15.901590159015882 C1.920192019201977 7.650765076507639 5.490549054905500 1.830183018301852 11.251125112511204 0.120012001200109 L7.140714071407160 -15.361536153615361 L11.971197119711974 -15.361536153615361 L16.861686168616870 0.000000000000000 C25.262526252625321 0.000000000000000 32.913291329132903 6.030603060306021 38.463846384638487 16.681668166816678 z" />
<glyph unicode="£" horiz-adv-x="69.126912691269126" d="M60.966096609660966 78.427842784278425 L51.215121512151200 78.427842784278425 C34.893489348934850 78.427842784278425 23.042304230423042 65.556555655565546 23.042304230423042 47.734773477347744 L23.042304230423042 43.864386438643862 L10.231023102310246 43.864386438643862 L8.760876087608722 38.403840384038403 L23.042304230423042 38.403840384038403 C23.042304230423042 35.943594359435963 23.042304230423042 33.183318331833163 23.042304230423042 28.052805280528048 C23.042304230423042 21.632163216321658 22.562256225622605 17.881788178817885 21.242124212421231 13.831383138313811 C17.821782178217859 15.931593159315923 13.981398139814019 17.131713171317131 10.231023102310246 17.131713171317131 C3.390339033903388 17.131713171317131 -1.920192019201977 11.791179117911781 -1.920192019201977 4.710471047104704 C-1.920192019201977 0.600060006000604 0.630063006300588 -1.650165016501660 5.430543054305417 -1.650165016501660 C11.401140114011355 -1.650165016501660 18.241824182418213 0.960096009600989 22.202220222022220 4.770477047704787 C30.783078307830806 -0.060006000600083 35.223522352235250 -1.650165016501660 40.564056405640599 -1.650165016501660 C50.525052505250528 -1.650165016501660 56.975697569757017 4.470447044704486 59.885988598859853 16.621662166216652 L59.045904590459031 17.131713171317131 C54.095409540954051 10.561056105610589 48.934893489348951 7.680768076807681 42.184218421842161 7.680768076807681 C37.923792379237966 7.680768076807681 31.023102310231025 9.330933093309341 26.162616261626113 11.731173117311755 C31.233123312331259 18.241824182418270 34.563456345634563 28.922892289228912 34.563456345634563 38.403840384038403 L55.175517551755206 38.403840384038403 L56.585658565856534 43.864386438643862 L34.563456345634563 43.864386438643862 L34.563456345634563 53.915391539153916 C34.563456345634563 66.126612661266108 39.843984398439829 72.967296729672967 49.384938493849404 72.967296729672967 C54.875487548754904 72.967296729672967 57.605760576057605 70.927092709270937 57.605760576057605 66.726672667266712 C57.605760576057605 64.176417641764147 56.285628562856346 60.546054605460540 55.055505550555040 59.675967596759676 C55.655565556555644 58.985898589859005 57.635763576357590 58.505850585058511 59.225922592259167 58.505850585058511 C63.876387638763845 58.505850585058511 67.206720672067149 62.316231623162309 67.206720672067149 67.686768676867700 C67.206720672067149 74.227422742274257 60.966096609661008 78.427842784278425 51.215121512151200 78.427842784278425 L60.966096609661008 78.427842784278425 zM14.491449144914490 10.171017101710170 L18.031803180317979 7.110711071107119 C14.941494149414893 4.950495049504980 11.611161116111589 3.840384038403840 8.100810081008149 3.840384038403840 C5.220522052205183 3.840384038403840 3.840384038403840 4.470447044704486 3.840384038403840 5.850585058505828 C3.840384038403840 9.180918091809190 6.180618061806172 11.521152115211521 9.480948094809492 11.521152115211521 C11.821182118211823 11.521152115211521 14.491449144914441 10.171017101710163 18.031803180317979 7.110711071107119 L14.491449144914441 10.171017101710163 z" />
<glyph unicode="¤" horiz-adv-x="69.126912691269126" d="M16.951695169516952 12.751275127512752 L9.420942094209408 5.340534053405349 L12.901290129012864 1.920192019201920 L20.342034203420326 9.390939093909367 C23.972397239723932 6.000600060005979 28.502850285028444 4.140414041404142 33.693369336933642 4.140414041404142 C38.823882388238871 4.140414041404142 43.324332433243285 5.880588058805870 47.074707470747057 9.270927092709258 L54.485448544854535 1.920192019201920 L58.085808580858043 5.340534053405349 L50.555055505550513 12.751275127512770 C53.825382538253848 16.381638163816376 55.685568556855742 20.912091209120888 55.685568556855742 26.012601260126019 C55.685568556855742 31.143114311431134 53.825382538253848 35.643564356435661 50.435043504350460 39.393939393939377 L58.085808580858043 46.924692469246907 L54.485448544854535 49.924992499249925 L46.984698469846990 42.874287428742889 C43.234323432343217 46.144614461446167 38.823882388238871 48.004800480048004 33.693369336933642 48.004800480048004 C28.592859285928625 48.004800480048004 24.062406240624114 46.144614461446167 20.432043204320394 42.874287428742889 L12.901290129012864 49.924992499249925 L9.330933093309341 46.924692469246907 L16.951695169516938 39.393939393939377 C13.561356135613551 35.643564356435661 11.821182118211823 31.143114311431134 11.821182118211823 26.012601260126019 C11.821182118211823 20.912091209120888 13.681368136813717 16.381638163816376 16.951695169516938 12.751275127512770 zM17.281728172817282 16.981698169816980 L17.281728172817338 26.012601260126019 C17.281728172817338 35.073507350735099 24.662466246624717 42.544254425442546 33.693369336933642 42.544254425442546 C42.754275427542780 42.544254425442546 50.225022502250226 35.073507350735099 50.225022502250226 26.012601260126019 C50.225022502250226 16.981698169816980 42.754275427542780 9.600960096009601 33.693369336933642 9.600960096009601 C24.662466246624717 9.600960096009601 17.281728172817225 16.981698169816980 17.281728172817338 26.012601260126019 L17.281728172817338 16.981698169816980 z" />
<glyph unicode="¥" horiz-adv-x="76.807680768076807" d="M62.406240624062406 19.201920192019202 L63.786378637863777 24.662466246624660 L46.114611461146069 24.662466246624660 L48.604860486048665 32.943294329432945 L66.486648664866493 32.943294329432945 L67.896789678967934 38.403840384038403 L51.605160516051569 38.403840384038403 L70.297029702970349 64.716471647164724 C75.007500750074996 71.407140714071375 76.297629762976271 72.817281728172816 81.698169816981704 72.817281728172816 L82.808280828082843 76.807680768076807 L58.085808580858043 76.807680768076807 L57.005700570057002 72.817281728172816 C61.596159615961597 72.817281728172816 64.386438643864381 71.317131713171307 64.386438643864381 68.526852685268523 C64.386438643864381 66.126612661266108 63.186318631863173 64.416441644164422 60.306030603060321 60.216021602160197 L46.414641464146371 39.903990399039913 L35.703570357035687 65.706570657065697 C35.103510351035084 67.116711671167081 34.893489348934850 68.406840684068413 34.893489348934850 69.306930693069319 C34.893489348934850 71.917191719171910 36.993699369936962 72.817281728172816 42.004200420042025 72.817281728172816 L43.114311431143165 76.807680768076807 L15.001500150014976 76.807680768076807 L13.891389138913837 72.817281728172816 C20.492049204920477 72.817281728172816 22.202220222022220 71.827182718271843 26.192619261926211 62.226222622262242 L36.093609360936057 38.403840384038403 L22.502250225022522 38.403840384038403 L21.092109210921080 32.943294329432945 L38.193819381938169 32.943294329432945 L35.793579357935755 24.662466246624660 L18.391839183918364 24.662466246624660 L17.011701170117021 19.201920192019202 L34.503450345034480 19.201920192019202 L33.603360336033575 15.721572157215746 C30.993099309931040 5.880588058805870 27.692769276927720 3.990399039903991 19.111911191119134 3.990399039903991 L18.001800180017995 0.000000000000000 L51.905190519051871 0.000000000000000 L53.105310531053078 3.990399039903991 C45.994599459946016 3.990399039903991 42.994299429942998 5.280528052805266 42.994299429942998 9.750975097509752 C42.994299429942998 11.551155115511563 43.414341434143466 13.831383138313811 44.194419441944206 16.711671167116720 L44.794479447944809 19.201920192019202 L62.406240624062434 19.201920192019202 z" />
<glyph unicode="¦" horiz-adv-x="34.563456345634563" d="M19.201920192019202 74.887488748874887 L11.521152115211521 74.887488748874887 L11.521152115211521 36.723672367236702 L19.201920192019202 36.723672367236702 L19.201920192019202 74.887488748874887 zM19.201920192019202 20.882088208820882 L11.521152115211521 20.882088208820903 L11.521152115211521 -17.281728172817338 L19.201920192019202 -17.281728172817338 L19.201920192019202 20.882088208820903 z" />
<glyph unicode="§" horiz-adv-x="61.446144614461446" d="M11.521152115211521 -10.861086108610863 L11.521152115211521 -5.250525052505225 C11.521152115211521 -0.270027002700260 9.810981098109778 1.920192019201920 6.150615061506187 1.920192019201920 C2.370237023702316 1.920192019201920 0.000000000000000 -0.660066006600687 0.000000000000000 -4.770477047704787 C0.000000000000000 -13.081308130813056 8.430843084308435 -17.281728172817338 18.061806180618078 -17.281728172817338 C31.563156315631545 -17.281728172817338 49.924992499249925 -9.450945094509450 49.924992499249925 12.571257125712577 C49.924992499249925 30.543054305430530 36.483648364836426 54.335433543354327 36.483648364836426 70.147014701470141 C36.483648364836426 77.407740774077411 40.354035403540365 80.498049804980496 44.494449444944507 80.498049804980496 C48.664866486648634 80.498049804980496 49.924992499249925 77.677767776777671 49.924992499249925 74.227422742274257 C49.924992499249925 72.877287728772899 49.924992499249925 71.287128712871322 49.924992499249925 70.147014701470141 C49.924992499249925 64.626462646264599 52.865286528652859 63.366336633663366 55.475547554755508 63.366336633663366 C58.985898589858948 63.366336633663366 61.446144614461446 66.306630663066301 61.446144614461446 70.687068706870718 C61.446144614461446 79.357935793579372 53.075307530753093 84.488448844884488 44.224422442244190 84.488448844884488 C30.273027302730270 84.488448844884488 13.441344134413498 76.177617761776162 13.441344134413384 53.225322532253244 C13.441344134413384 38.313831383138336 23.042304230423042 13.321332133213332 23.042304230423042 -0.570057005700562 C23.042304230423042 -8.760876087608779 21.062106210621096 -13.141314131413139 16.891689168916855 -13.141314131413139 C13.651365136513618 -13.141314131413139 11.521152115211521 -10.861086108610834 11.521152115211521 -5.250525052505225 L11.521152115211521 -10.861086108610834 zM40.324032403240324 22.802280228022802 L40.324032403240381 8.160816081608175 C40.324032403240267 -2.460246024602441 35.973597359736004 -10.081008100810095 25.712571257125660 -12.421242124212426 C31.203120312031160 -8.790879087908820 32.643264326432586 -4.380438043804361 32.643264326432700 2.730273027302701 C32.643264326432700 19.021902190219009 23.042304230423042 45.454545454545439 23.042304230423042 59.375937593759375 C23.042304230423042 68.526852685268523 26.012601260125962 74.467446744674476 33.003300330032971 78.307830783078316 C29.102910291029048 73.507350735073487 29.102910291029161 69.726972697269730 29.102910291029048 62.646264626462653 C29.102910291029048 48.424842484248416 40.324032403240381 22.802280228022823 40.324032403240381 8.160816081608175 L40.324032403240381 22.802280228022823 z" />
<glyph unicode="¨" horiz-adv-x="32.643264326432643" d="M2.700270027002702 74.317431743174311 L1.890189018901879 71.047104710471046 C1.710171017101743 70.477047704770484 1.710171017101743 69.966996699669949 1.710171017101743 69.456945694569470 C1.710171017101743 66.966696669666931 3.390339033903388 65.286528652865286 6.090609060906104 65.286528652865286 C9.810981098109778 65.286528652865286 13.711371137113701 68.556855685568564 13.711371137113701 72.547254725472555 C13.711371137113701 75.037503750375038 12.001200120011958 76.807680768076807 9.210921092109174 76.807680768076807 C5.910591059105855 76.807680768076807 2.700270027002716 74.317431743174325 1.890189018901879 71.047104710471046 L2.700270027002716 74.317431743174325 zM19.411941194119411 74.317431743174311 L18.601860186018598 71.047104710471046 C18.391839183918364 70.477047704770484 18.391839183918364 69.966996699669949 18.391839183918364 69.456945694569470 C18.391839183918364 66.966696669666931 20.102010201020107 65.286528652865286 22.802280228022823 65.286528652865286 C26.492649264926513 65.286528652865286 30.393039303930436 68.556855685568564 30.393039303930436 72.547254725472555 C30.393039303930436 75.037503750375038 28.712871287128678 76.807680768076807 25.892589258925909 76.807680768076807 C22.592259225922589 76.807680768076807 19.411941194119436 74.317431743174325 18.601860186018598 71.047104710471046 L19.411941194119436 74.317431743174325 z" />
<glyph unicode="©" horiz-adv-x="92.169216921692168" d="M86.408640864086408 16.291629162916291 L86.408640864086465 38.643864386438622 C86.408640864086465 60.936093609360910 69.546954695469594 78.727872787278727 48.604860486048665 78.727872787278727 C26.972697269726950 78.727872787278727 9.600960096009658 60.666066606660650 9.600960096009658 38.613861386138637 C9.600960096009544 16.501650165016486 27.062706270627018 -1.620162016201618 48.694869486948733 -1.620162016201618 C69.546954695469594 -1.620162016201618 86.408640864086351 16.291629162916308 86.408640864086465 38.643864386438622 L86.408640864086465 16.291629162916308 zM80.948094809480949 57.995799579957996 L80.948094809480949 38.733873387338747 C80.948094809480949 19.471947194719462 66.486648664866493 3.840384038403840 48.694869486948733 3.840384038403840 C29.942994299429984 3.840384038403840 15.061506150615060 19.471947194719462 15.061506150615060 38.613861386138637 C15.061506150615060 57.575757575757564 29.822982298229817 73.267326732673268 48.604860486048665 73.267326732673268 C66.486648664866493 73.267326732673268 80.948094809480949 57.995799579957975 80.948094809480949 38.733873387338747 L80.948094809480949 57.995799579957975 zM65.256525652565259 30.423042304230421 L62.136213621362117 30.423042304230421 C60.336033603360306 23.252325232523276 56.255625562556247 19.471947194719462 50.105010501050060 19.471947194719462 C41.314131413141354 19.471947194719462 36.483648364836426 26.042604260426060 36.483648364836426 38.013801380138034 C36.483648364836426 50.195019501950185 41.404140414041422 57.455745574557454 49.924992499249925 57.455745574557454 C56.075607560756112 57.455745574557454 60.816081608160857 53.675367536753697 62.316231623162366 47.524752475247510 L64.776477647764750 47.524752475247510 L64.296429642964313 61.446144614461446 L62.316231623162366 61.446144614461446 L61.356135613561378 57.365736573657387 C57.005700570057002 60.246024602460238 53.615361536153614 61.446144614461446 49.444944494449487 61.446144614461446 C36.063606360636072 61.446144614461446 26.882688268826882 51.755175517551777 26.882688268826882 37.593759375937566 C26.882688268826882 24.122412241224140 35.463546354635469 15.361536153615361 48.874887488748868 15.361536153615361 C58.235823582358194 15.361536153615361 63.456345634563490 21.482148214821507 65.256525652565301 30.423042304230421 z" />
<glyph unicode="ª" horiz-adv-x="38.403840384038403" d="M25.292529252925291 74.887488748874887 L30.123012301230119 74.887488748874887 C31.503150315031462 74.887488748874887 32.463246324632451 74.107410741074091 32.463246324632451 71.917191719171910 C32.463246324632451 65.916591659165931 26.642664266426664 53.915391539153916 22.022202220221970 53.915391539153916 C20.342034203420326 53.915391539153916 19.201920192019202 55.955595559555945 19.201920192019202 59.615961596159593 C19.201920192019202 65.346534653465369 25.292529252925306 74.887488748874887 30.123012301230119 74.887488748874887 L25.292529252925306 74.887488748874887 zM35.673567356735674 76.807680768076807 L34.563456345634563 74.797479747974762 C33.753375337533726 77.287728772877301 32.463246324632451 78.427842784278425 30.153015301530104 78.427842784278425 C22.502250225022522 78.427842784278425 13.441344134413384 67.506750675067508 13.441344134413384 58.835883588358854 C13.441344134413384 53.045304530453052 15.871587158715897 49.924992499249925 19.201920192019202 49.924992499249925 C22.862286228622906 49.924992499249925 26.702670267026747 53.105310531053078 28.592859285928625 57.395739573957371 L29.012901290128980 57.395739573957371 C28.922892289228912 55.685568556855685 28.802880288028859 54.095409540954108 28.802880288028746 53.015301530153010 C28.802880288028746 50.825082508250830 29.822982298229817 49.924992499249925 31.773177317731779 49.924992499249925 C34.713471347134714 49.924992499249925 38.523852385238570 53.405340534053380 41.464146414641505 59.135913591359156 L40.174017401740230 60.546054605460540 C37.983798379837935 57.605760576057605 36.273627362736306 55.685568556855685 35.163516351635167 55.685568556855685 C34.473447344734495 55.685568556855685 34.263426342634261 56.345634563456315 34.263426342634261 57.035703570357043 C34.263426342634261 58.985898589859005 36.153615361536140 65.196519651965218 37.983798379837935 69.756975697569771 L40.774077407740833 76.807680768076807 L35.673567356735703 76.807680768076807 z" />
<glyph unicode="«" horiz-adv-x="48.004800480048004" d="M2.910291029102911 25.862586258625861 L15.691569156915648 9.600960096009601 L18.091809180918062 11.671167116711672 L12.001200120011958 25.862586258625868 L25.592559255925607 40.084008400840105 L24.212421242124265 42.244224422442244 L2.910291029102950 25.862586258625868 zM20.012001200120011 25.862586258625861 L32.793279327932851 9.600960096009601 L35.193519351935151 11.671167116711672 L29.102910291029048 25.862586258625868 L42.694269426942697 40.084008400840105 L41.314131413141354 42.244224422442244 L20.012001200120039 25.862586258625868 z" />
<glyph unicode="¬" horiz-adv-x="67.206720672067206" d="M50.225022502250226 31.023102310231025 L50.225022502250226 11.521152115211521 L55.685568556855742 11.521152115211521 L55.685568556855742 36.483648364836483 L9.420942094209408 36.483648364836483 L9.420942094209408 31.023102310231025 L50.225022502250226 31.023102310231025 z" />
<glyph unicode="­" horiz-adv-x="48.004800480048004" d="M8.100810081008099 24.962496249624962 L39.003900390039007 24.962496249624962 L39.003900390039007 32.643264326432643 L8.100810081008149 32.643264326432643 L8.100810081008149 24.962496249624962 z" />
<glyph unicode="®" horiz-adv-x="92.169216921692168" d="M86.408640864086408 16.291629162916291 L86.408640864086465 38.643864386438622 C86.408640864086465 60.936093609360910 68.916891689168892 78.727872787278727 47.224722472247208 78.727872787278727 C26.342634263426362 78.727872787278727 9.600960096009658 60.876087608760884 9.600960096009658 39.123912391239116 C9.600960096009544 16.741674167416761 26.462646264626414 -1.620162016201618 47.344734473447375 -1.620162016201618 C68.946894689468991 -1.620162016201618 86.408640864086351 16.291629162916308 86.408640864086465 38.643864386438622 L86.408640864086465 16.291629162916308 zM80.948094809480949 58.205820582058209 L80.948094809480949 39.213921392139241 C80.948094809480949 19.711971197119738 65.856585658565905 3.840384038403840 47.344734473447375 3.840384038403840 C29.342934293429380 3.840384038403840 15.061506150615060 19.711971197119738 15.061506150615060 39.123912391239116 C15.061506150615060 57.815781578157839 29.222922292229214 73.267326732673268 47.224722472247208 73.267326732673268 C65.856585658565905 73.267326732673268 80.948094809480949 58.205820582058209 80.948094809480949 39.213921392139241 L80.948094809480949 58.205820582058209 zM61.446144614461446 45.154515451545151 L61.446144614461446 50.975097509750981 C61.446144614461446 57.485748574857496 55.685568556855742 61.446144614461446 45.604560456045647 61.446144614461446 L28.112811281128074 61.446144614461446 L28.112811281128074 59.225922592259224 C32.013201320131998 59.225922592259224 32.643264326432700 58.265826582658292 32.643264326432700 53.405340534053380 L32.643264326432700 27.272727272727252 C32.643264326432586 22.142214221422137 31.923192319231930 21.122112211221122 27.572757275727554 21.122112211221122 L27.572757275727554 18.931893189318941 L47.224722472247208 18.931893189318941 L47.224722472247208 21.122112211221122 C41.104110411041120 21.122112211221122 40.324032403240267 22.292229222922288 40.324032403240381 27.602760276027595 L40.324032403240381 38.913891389138939 C43.354335433543383 38.913891389138939 44.314431443144258 38.523852385238513 46.024602460246001 36.003600360035989 L59.135913591359099 18.931893189318941 L69.906990699069866 18.931893189318941 L69.906990699069866 21.122112211221122 C66.996699669967029 21.632163216321658 65.256525652565301 22.622262226222631 63.396339633963407 24.932493249324921 L51.365136513651350 39.933993399339954 C58.355835583558360 41.104110411041120 61.446144614461446 45.154515451545137 61.446144614461446 50.975097509750981 L61.446144614461446 45.154515451545137 zM40.324032403240324 42.244224422442244 L40.324032403240381 58.325832583258318 C40.324032403240381 58.835883588358854 40.504050405040516 59.225922592259224 41.194119411941188 59.225922592259224 L45.604560456045647 59.225922592259224 C51.275127512751283 59.225922592259224 53.765376537653765 57.005700570057002 53.765376537653765 51.095109510951090 C53.765376537653765 44.854485448544835 50.585058505850611 42.244224422442244 44.164416441644107 42.244224422442244 L40.324032403240381 42.244224422442244 z" />
<glyph unicode="¯" horiz-adv-x="30.723072307230723" d="M1.290129012901289 69.426942694269428 L28.292829282928324 69.426942694269428 L29.612961296129583 74.887488748874887 L2.610261026102648 74.887488748874887 L1.290129012901275 69.426942694269428 z" />
<glyph unicode="°" horiz-adv-x="34.563456345634563" d="M13.741374137413741 72.967296729672967 L13.741374137413686 66.306630663066301 C13.741374137413686 59.585958595859609 19.321932193219368 54.065406540654067 26.132613261326128 54.065406540654067 C32.883288328832919 54.065406540654067 38.403840384038403 59.585958595859609 38.403840384038403 66.306630663066301 C38.403840384038403 72.967296729672967 32.883288328832919 78.427842784278425 26.132613261326128 78.427842784278425 C19.321932193219368 78.427842784278425 13.741374137413686 72.967296729672967 13.741374137413686 66.306630663066301 L13.741374137413686 72.967296729672967 zM17.281728172817282 61.566156615661569 L17.281728172817338 66.306630663066301 C17.281728172817338 71.017101710171005 21.302130213021314 74.887488748874887 26.132613261326128 74.887488748874887 C30.933093309330957 74.887488748874887 34.863486348634865 71.017101710171005 34.863486348634865 66.306630663066301 C34.863486348634865 61.566156615661555 30.933093309330957 57.605760576057605 26.132613261326128 57.605760576057605 C21.302130213021314 57.605760576057605 17.281728172817338 61.566156615661555 17.281728172817338 66.306630663066301 L17.281728172817338 61.566156615661555 z" />
<glyph unicode="±" horiz-adv-x="65.286528652865286" d="M30.723072307230723 23.762376237623762 L36.183618361836125 23.762376237623755 L36.183618361836125 44.164416441644164 L56.975697569757017 44.164416441644164 L56.975697569757017 49.624962496249623 L36.183618361836125 49.624962496249623 L36.183618361836125 71.047104710471046 L30.723072307230723 71.047104710471046 L30.723072307230723 49.624962496249623 L9.930993099309944 49.624962496249623 L9.930993099309944 44.164416441644164 L30.723072307230723 44.164416441644164 L30.723072307230723 23.762376237623755 zM56.975697569756974 9.600960096009601 L56.975697569757017 15.061506150615060 L9.930993099309944 15.061506150615060 L9.930993099309944 9.600960096009601 L56.975697569757017 9.600960096009601 z" />
<glyph unicode="²" horiz-adv-x="28.802880288028803" d="M16.021602160216020 49.984998499849986 L16.021602160216048 50.495049504950487 C29.102910291029048 59.585958595859609 34.263426342634261 65.826582658265806 34.263426342634261 71.677167716771692 C34.263426342634261 75.877587758775860 30.513051305130489 78.727872787278727 24.692469246924702 78.727872787278727 C18.511851185118530 78.727872787278727 13.441344134413384 74.977497749775011 13.441344134413384 70.447044704470443 C13.441344134413384 67.356735673567357 15.211521152115210 65.286528652865286 17.911791179117927 65.286528652865286 C19.801980198019805 65.286528652865286 21.242124212421231 66.096609660966124 21.812181218121850 67.536753675367549 C19.141914191419119 67.536753675367549 17.581758175817640 68.976897689768975 17.581758175817640 71.467146714671458 C17.581758175817640 74.257425742574242 20.342034203420326 76.507650765076505 23.792379237923797 76.507650765076505 C26.912691269126867 76.507650765076505 28.802880288028859 74.647464746474611 28.802880288028746 71.767176717671759 C28.802880288028746 65.886588658865890 23.912391239123963 59.795979597959786 9.930993099309944 48.334833483348348 L9.630963096309642 46.084608460846084 L28.922892289228912 46.084608460846084 L31.533153315331560 53.765376537653765 L29.552955295529500 53.765376537653765 C27.902790279027954 50.855085508550872 26.582658265826581 49.984998499850008 23.702370237023729 49.984998499850008 L16.021602160216048 49.984998499850008 z" />
<glyph unicode="³" horiz-adv-x="28.802880288028803" d="M25.262526252625264 58.625862586258627 L25.262526252625321 54.965496549654972 C25.262526252625207 50.915091509150898 22.682268226822657 48.304830483048306 18.901890189018900 48.304830483048306 C15.661566156615663 48.304830483048306 13.741374137413686 49.414941494149389 13.741374137413686 51.545154515451543 C13.741374137413686 53.855385538553833 15.691569156915648 55.775577557755753 18.001800180017995 55.775577557755753 C17.791779177917761 56.795679567956768 16.591659165916553 57.605760576057605 15.211521152115210 57.605760576057605 C12.211221122112192 57.605760576057605 9.600960096009658 54.965496549654972 9.600960096009658 51.935193519351913 C9.600960096009658 48.454845484548457 13.291329132913233 46.084608460846084 18.601860186018598 46.084608460846084 C25.352535253525389 46.084608460846084 30.723072307230723 50.345034503450336 30.723072307230723 55.595559555955617 C30.723072307230723 59.285928592859307 28.562856285628527 62.226222622262242 24.722472247224687 63.216321632163215 L24.722472247224687 63.636363636363626 C29.162916291629131 64.566456645664573 32.643264326432586 68.286828682868304 32.643264326432700 72.097209720972103 C32.643264326432700 74.977497749775011 29.222922292229214 76.807680768076807 23.882388238823864 76.807680768076807 C18.811881188118832 76.807680768076807 15.091509150915044 74.617461746174627 15.091509150915044 71.617161716171609 C15.091509150915044 69.006900690069017 16.591659165916553 67.206720672067206 18.991899189918968 67.206720672067206 C20.102010201020107 67.206720672067206 21.152115211521163 67.926792679267919 21.512151215121548 69.006900690069017 C20.042004200420024 69.006900690069017 19.201920192019202 70.207020702070224 19.201920192019202 72.097209720972103 C19.201920192019202 74.587458745874585 21.032103210320997 76.507650765076505 23.612361236123661 76.507650765076505 C25.982598259825977 76.507650765076505 27.182718271827184 74.827482748274861 27.182718271827184 71.137113711371171 C27.182718271827184 62.166216621662159 16.981698169817037 66.066606660666082 16.981698169817037 62.286228622862268 C16.981698169817037 61.776177617761789 17.371737173717406 61.446144614461446 18.211821182118229 61.446144614461446 C18.961896189618983 61.446144614461446 20.282028202820243 61.446144614461446 21.122112211221065 61.446144614461446 C23.522352235223480 61.446144614461446 25.262526252625321 58.625862586258620 25.262526252625321 54.965496549654972 L25.262526252625321 58.625862586258620 z" />
<glyph unicode="´" horiz-adv-x="26.882688268826882" d="M2.010201020102009 65.286528652865286 L6.690669066906708 65.286528652865286 L20.402040204020409 71.857185718571827 C23.612361236123661 73.357335733573336 25.502550255025540 74.977497749775011 25.502550255025540 77.107710771077109 C25.502550255025540 79.327932793279331 24.002400240024031 80.648064806480647 21.692169216921684 80.648064806480647 C19.591959195919571 80.648064806480647 17.491749174917459 79.627962796279633 15.001500150014976 77.317731773177343 L2.010201020102045 65.286528652865286 z" />
<glyph unicode="µ" horiz-adv-x="69.126912691269126" d="M18.301830183018303 36.993699369936991 L15.091509150915044 26.912691269126924 C10.321032103210314 11.701170117011714 3.600360036003622 -11.071107110711068 2.010201020102045 -17.701770177017693 C1.620162016201675 -19.351935193519353 1.410141014101441 -20.672067206720612 1.410141014101441 -21.902190219021918 C1.410141014101441 -25.382538253825373 2.820282028202769 -26.882688268826882 5.910591059105855 -26.882688268826882 C9.690969096909726 -26.882688268826882 11.701170117011657 -24.362436243624416 12.601260126012562 -18.931893189318885 L15.991599159915950 1.830183018301852 L16.291629162916252 1.920192019201920 C17.401740174017391 -0.630063006300645 19.531953195319488 -1.920192019201920 22.682268226822657 -1.920192019201920 C27.512751275127471 -1.920192019201920 32.373237323732383 3.630363036303606 36.213621362136223 13.591359135913592 L36.483648364836426 13.291329132913290 C36.483648364836426 11.341134113411329 36.483648364836426 9.480948094809492 36.483648364836426 7.410741074107420 C36.483648364836426 0.750075007500755 37.773777377737815 -1.920192019201920 40.984098409840954 -1.920192019201920 C47.344734473447375 -1.920192019201920 55.385538553855326 6.000600060005979 59.375937593759318 16.201620162016184 L56.375637563756413 17.731773177317734 C53.765376537653765 11.551155115511563 48.664866486648634 5.760576057605761 45.874587458745850 5.760576057605761 C44.764476447644711 5.760576057605761 44.164416441644107 6.690669066906708 44.164416441644107 8.430843084308435 C44.164416441644107 10.921092109210917 45.574557455745548 16.081608160816074 49.954995499549909 30.123012301230119 L57.365736573657387 53.765376537653765 L48.064806480648031 53.765376537653765 L41.194119411941188 33.243324332433247 C36.273627362736306 18.481848184818489 27.932793279327939 5.760576057605761 23.192319231923193 5.760576057605761 C21.362136213621397 5.760576057605761 20.432043204320394 6.990699069907009 20.432043204320394 9.780978097809793 C20.432043204320394 13.201320132013223 21.752175217521767 19.081908190819092 24.002400240024031 25.772577257725743 C30.213021302130187 44.164416441644164 30.723072307230723 45.904590459045892 30.723072307230723 49.114911491149087 C30.723072307230723 51.995199519951996 28.772877287728761 53.765376537653765 25.622562256225592 53.765376537653765 C19.681968196819639 53.765376537653765 10.531053105310548 46.414641464146428 6.210621062106156 38.163816381638185 L8.790879087908820 36.723672367236702 C13.291329132913233 42.394239423942395 16.501650165016486 45.394539453945413 18.091809180918062 45.394539453945413 C18.811881188118832 45.394539453945413 19.201920192019202 44.674467446744643 19.201920192019202 43.234323432343217 C19.201920192019202 40.684068406840652 18.301830183018296 36.993699369936962 15.091509150915044 26.912691269126924 L18.301830183018296 36.993699369936962 z" />
<glyph unicode="¶" horiz-adv-x="55.685568556855685" d="M35.403540354035400 6.630663066306632 L48.004800480048061 56.975697569756960 C51.695169516951637 71.977197719771993 53.105310531053078 72.997299729973008 59.195919591959182 72.997299729973008 L60.186018601860155 76.807680768076807 L43.594359435943602 76.807680768076807 C24.302430243024332 76.807680768076807 10.201020102010148 66.966696669666931 10.201020102010148 49.834983498349857 C10.201020102010148 38.013801380138034 19.201920192019202 32.883288328832862 28.292829282928324 32.883288328832862 C29.702970297029651 32.883288328832862 31.203120312031160 32.973297329732986 32.613261326132601 33.273327332733288 L21.002100210021013 -12.301230123012317 C19.591959195919571 -17.581758175817640 17.011701170117021 -21.122112211221065 13.891389138913837 -21.122112211221065 C8.700870087008752 -21.122112211221065 11.311131113111287 -13.441344134413441 5.700570057005734 -13.441344134413441 C2.610261026102648 -13.441344134413441 0.810081008100838 -15.751575157515731 0.810081008100838 -19.351935193519353 C0.810081008100838 -23.612361236123661 4.890489048904897 -26.882688268826882 10.411041104110382 -26.882688268826882 C21.812181218121850 -26.882688268826882 28.592859285928625 -20.642064206420628 35.403540354035385 6.630663066306624 z" />
<glyph unicode="·" horiz-adv-x="26.882688268826882" d="M5.760576057605761 31.593159315931594 L5.760576057605704 27.782778277827788 C5.760576057605704 24.092409240924098 8.730873087308737 21.122112211221122 12.421242124212426 21.122112211221122 C16.231623162316282 21.122112211221122 19.201920192019202 24.092409240924098 19.201920192019202 27.782778277827788 C19.201920192019202 31.593159315931587 16.231623162316282 34.563456345634563 12.421242124212426 34.563456345634563 C8.730873087308737 34.563456345634563 5.760576057605704 31.593159315931587 5.760576057605704 27.782778277827788 L5.760576057605704 31.593159315931587 z" />
<glyph unicode="¸" horiz-adv-x="23.042304230423042" d="M13.471347134713472 -7.410741074107410 L18.511851185118530 1.920192019201920 L13.561356135613551 1.920192019201920 L5.070507050705032 -11.191119111911178 L5.160516051605214 -11.521152115211521 C5.760576057605704 -11.521152115211521 7.350735073507394 -11.521152115211521 8.670867086708654 -11.521152115211521 C12.961296129612947 -11.521152115211521 15.361536153615361 -12.391239123912385 15.361536153615361 -14.101410141014071 C15.361536153615361 -18.121812181218161 12.061206120612042 -21.122112211221065 8.850885088508903 -21.122112211221065 C4.140414041404142 -21.122112211221065 6.150615061506187 -13.441344134413441 2.850285028502867 -13.441344134413441 C0.570057005700619 -13.441344134413441 -1.230123012301192 -15.781578157815773 -1.230123012301192 -18.901890189018900 C-1.230123012301192 -22.352235223522371 2.760276027602799 -24.962496249625019 8.670867086708654 -24.962496249625019 C15.751575157515731 -24.962496249625019 23.042304230423042 -19.471947194719519 23.042304230423042 -12.691269126912687 C23.042304230423042 -9.240924092409216 19.651965196519654 -7.410741074107420 13.471347134713483 -7.410741074107420 z" />
<glyph unicode="¹" horiz-adv-x="26.882688268826882" d="M23.612361236123611 57.725772577257729 L28.712871287128678 78.727872787278727 L26.702670267026747 78.727872787278727 C23.912391239123963 75.997599759975969 20.912091209120945 73.597359735973612 16.501650165016486 73.597359735973612 L15.811581158115814 71.287128712871322 C18.811881188118832 71.287128712871322 20.702070207020711 72.007200720071978 21.602160216021616 72.007200720071978 C21.992199219921986 72.007200720071978 22.202220222022220 71.797179717971801 22.202220222022220 71.377137713771390 C22.202220222022220 71.287128712871322 22.202220222022220 70.987098709871020 22.112211221122152 70.777077707770786 L18.091809180918062 54.065406540654067 C17.011701170117021 49.564956495649540 15.301530153015278 48.184818481848197 11.491149114911536 48.184818481848197 L11.011101110110985 46.084608460846084 L26.312631263126264 46.084608460846084 L26.792679267926815 48.184818481848197 C23.612361236123661 48.184818481848197 22.592259225922589 49.654965496549664 22.592259225922589 51.845184518451845 C22.592259225922589 53.435343534353422 23.102310231023125 55.625562556255602 23.612361236123661 57.725772577257715 z" />
<glyph unicode="º" horiz-adv-x="34.563456345634563" d="M17.401740174017402 50.765076507650761 L21.992199219921986 50.765076507650747 C29.252925292529198 50.765076507650747 36.483648364836426 60.126012601260129 36.483648364836426 68.316831683168289 C36.483648364836426 73.687368736873680 32.913291329132903 77.107710771077109 27.812781278127773 77.107710771077109 C20.492049204920477 77.107710771077109 13.441344134413384 68.826882688268824 13.441344134413384 60.636063606360608 C13.441344134413384 54.515451545154519 17.401740174017391 50.765076507650747 21.992199219921986 50.765076507650747 L17.401740174017391 50.765076507650747 zM26.522652265226522 53.765376537653765 L22.412241224122454 53.765376537653765 C20.612061206120643 53.765376537653765 19.201920192019202 55.145514551455165 19.201920192019202 58.685868586858703 C19.201920192019202 65.646564656465671 23.192319231923193 74.887488748874887 27.302730273027350 74.887488748874887 C29.402940294029349 74.887488748874887 30.723072307230723 73.807380738073789 30.723072307230723 70.267026702670250 C30.723072307230723 63.396339633963407 26.522652265226498 53.765376537653765 22.412241224122454 53.765376537653765 L26.522652265226498 53.765376537653765 z" />
<glyph unicode="»" horiz-adv-x="48.004800480048004" d="M20.912091209120913 10.531053105310530 L42.094209420942093 26.342634263426362 L29.402940294029349 42.244224422442244 L26.792679267926815 40.144014401440131 L33.003300330032971 26.342634263426362 L19.501950195019504 12.541254125412536 L20.912091209120945 10.531053105310548 zM3.810381038103810 10.531053105310530 L24.992499249925004 26.342634263426362 L12.301230123012260 42.244224422442244 L9.690969096909726 40.144014401440131 L15.901590159015882 26.342634263426362 L2.400240024002414 12.541254125412536 L3.810381038103856 10.531053105310548 z" />
<glyph unicode="¼" horiz-adv-x="63.366336633663366" d="M5.400540054005401 0.000000000000000 L66.786678667866795 76.807680768076807 L60.996099609960993 76.807680768076807 L-1.290129012901275 0.000000000000000 L5.400540054005433 0.000000000000000 zM23.492349234923491 57.665766576657667 L28.592859285928625 78.727872787278727 L26.612661266126565 78.727872787278727 C23.792379237923797 75.607560756075600 20.792079207920779 72.847284728472857 16.411641164116418 72.847284728472857 L15.691569156915648 70.597059705970594 C18.691869186918666 70.597059705970594 20.612061206120643 71.317131713171307 21.512151215121548 71.317131713171307 C21.902190219021918 71.317131713171307 22.112211221122152 71.107110711071073 22.112211221122152 70.687068706870718 C22.112211221122152 70.597059705970594 22.112211221122152 70.297029702970292 21.992199219921986 70.087008700870115 L18.001800180017995 53.885388538853874 C16.891689168916855 49.504950495049513 15.211521152115210 48.184818481848197 11.401140114011355 48.184818481848197 L10.891089108910933 46.084608460846084 L26.192619261926211 46.084608460846084 L26.702670267026747 48.184818481848197 C23.492349234923495 48.184818481848197 22.502250225022522 49.624962496249623 22.502250225022522 51.755175517551777 C22.502250225022522 53.345334533453354 23.012301230123057 55.535553555355534 23.492349234923495 57.665766576657688 zM49.804980498049801 13.741374137413741 L54.185418541854233 30.783078307830806 L51.905190519051871 30.783078307830806 L33.303330333033273 13.471347134713483 L32.793279327932851 11.521152115211521 L44.614461446144560 11.521152115211521 L41.704170417041723 0.000000000000000 L45.904590459045949 0.000000000000000 L49.204920492049155 11.521152115211521 L54.095409540954051 11.521152115211521 L54.695469546954655 13.741374137413743 L49.804980498049758 13.741374137413743 zM45.304530453045302 13.741374137413741 L36.993699369936962 13.741374137413743 L47.914791479147880 24.332433243324317 L48.214821482148182 24.242424242424249 L45.304530453045345 13.741374137413743 z" />
<glyph unicode="½" horiz-adv-x="65.286528652865286" d="M5.610561056105610 0.000000000000000 L66.696669666966727 76.807680768076807 L60.906090609060925 76.807680768076807 L-1.110111011101139 0.000000000000000 L5.610561056105553 0.000000000000000 zM23.702370237023700 57.665766576657667 L28.802880288028746 78.727872787278727 L26.792679267926815 78.727872787278727 C24.002400240024031 75.607560756075600 21.002100210021013 72.847284728472857 16.591659165916553 72.847284728472857 L15.901590159015882 70.597059705970594 C18.901890189018900 70.597059705970594 20.792079207920779 71.317131713171307 21.692169216921684 71.317131713171307 C22.082208220822054 71.317131713171307 22.292229222922288 71.107110711071073 22.292229222922288 70.687068706870718 C22.292229222922288 70.597059705970594 22.292229222922288 70.297029702970292 22.202220222022220 70.087008700870115 L18.211821182118229 53.885388538853874 C17.101710171017089 49.504950495049513 15.391539153915346 48.184818481848197 11.611161116111589 48.184818481848197 L11.101110111011053 46.084608460846084 L26.402640264026445 46.084608460846084 L26.912691269126867 48.184818481848197 C23.702370237023729 48.184818481848197 22.712271227122756 49.624962496249623 22.712271227122756 51.755175517551777 C22.712271227122756 53.345334533453354 23.222322232223178 55.535553555355534 23.702370237023729 57.665766576657688 zM40.684068406840680 3.900390039003900 L40.684068406840652 4.290429042904293 C52.925292529252943 12.781278127812755 57.605760576057605 18.331833183318338 57.605760576057605 23.672367236723687 C57.605760576057605 27.872787278727856 54.035403540354082 30.723072307230723 48.514851485148483 30.723072307230723 C42.784278427842764 30.723072307230723 38.103810381038102 26.972697269726950 38.103810381038102 22.442244224422438 C38.103810381038102 19.351935193519353 39.873987398739928 17.281728172817282 42.544254425442546 17.281728172817282 C44.194419441944206 17.281728172817282 45.484548454845481 18.091809180918062 45.964596459645918 19.531953195319545 C43.624362436243587 19.531953195319545 42.244224422442244 20.972097209720971 42.244224422442244 23.462346234623453 C42.244224422442244 26.252625262526237 44.704470447044741 28.502850285028501 47.734773477347744 28.502850285028501 C50.465046504650445 28.502850285028501 52.145214521452090 26.642664266426664 52.145214521452090 23.762376237623755 C52.145214521452090 18.331833183318338 47.584758475847593 12.661266126612645 34.593459345934548 2.070207020702071 L34.293429342934246 0.000000000000000 L52.265226522652256 0.000000000000000 L54.875487548754904 6.810681068106817 L52.895289528952844 6.810681068106817 C51.395139513951335 4.590459045904595 50.225022502250226 3.900390039003923 47.644764476447676 3.900390039003923 L40.684068406840652 3.900390039003923 z" />
<glyph unicode="¾" horiz-adv-x="65.286528652865286" d="M8.610861086108610 0.000000000000000 L70.357035703570318 76.807680768076807 L64.566456645664630 76.807680768076807 L1.920192019201977 0.000000000000000 L8.610861086108571 0.000000000000000 zM53.375337533753374 13.741374137413741 L57.755775577557756 30.993099309930983 L55.475547554755508 30.993099309930983 L36.873687368736910 13.501350135013524 L36.363636363636374 11.521152115211521 L48.154815481548212 11.521152115211521 L45.274527452745247 0.000000000000000 L49.474947494749472 0.000000000000000 L52.775277527752792 11.521152115211521 L57.665766576657688 11.521152115211521 L58.265826582658292 13.741374137413743 L53.375337533753395 13.741374137413743 zM48.874887488748875 13.741374137413741 L40.564056405640599 13.741374137413743 L51.485148514851517 24.332433243324317 L51.785178517851818 24.242424242424249 L48.874887488748868 13.741374137413743 zM26.882688268826882 58.625862586258627 L26.882688268826882 54.965496549654972 C26.882688268826882 50.915091509150898 23.762376237623812 48.304830483048306 19.171917191719217 48.304830483048306 C16.771677167716803 48.304830483048306 15.361536153615361 49.414941494149389 15.361536153615361 51.545154515451543 C15.361536153615361 53.855385538553833 16.711671167116720 55.775577557755753 18.271827182718312 55.775577557755753 C18.061806180618078 56.795679567956768 16.861686168616870 57.605760576057605 15.481548154815528 57.605760576057605 C13.201320132013166 57.605760576057605 11.221122112211219 54.965496549654972 11.221122112211219 51.935193519351913 C11.221122112211219 48.454845484548457 14.341434143414290 46.084608460846084 18.871887188718915 46.084608460846084 C26.372637263726347 46.084608460846084 32.343234323432284 50.345034503450336 32.343234323432398 55.595559555955617 C32.343234323432398 59.285928592859307 30.123012301230119 62.226222622262242 26.222622262226196 63.216321632163215 L26.222622262226196 63.636363636363626 C30.753075307530708 64.566456645664573 34.263426342634261 68.286828682868304 34.263426342634261 72.097209720972103 C34.263426342634261 74.977497749775011 30.723072307230723 76.807680768076807 25.202520252025238 76.807680768076807 C19.531953195319488 76.807680768076807 15.361536153615361 74.617461746174627 15.361536153615361 71.617161716171609 C15.361536153615361 69.006900690069017 16.861686168616870 67.206720672067206 19.261926192619285 67.206720672067206 C20.612061206120643 67.206720672067206 21.842184218421835 67.926792679267919 22.292229222922288 69.006900690069017 C20.492049204920477 69.006900690069017 19.471947194719519 70.207020702070224 19.471947194719519 72.097209720972103 C19.501950195019504 74.587458745874585 21.752175217521767 76.507650765076505 24.872487248724838 76.507650765076505 C27.482748274827486 76.507650765076505 28.802880288028859 74.827482748274861 28.802880288028746 71.137113711371171 C28.802880288028746 62.166216621662159 17.281728172817338 66.066606660666082 17.281728172817338 62.286228622862268 C17.281728172817338 61.776177617761789 17.641764176417610 61.446144614461446 18.481848184818432 61.446144614461446 C19.351935193519353 61.446144614461446 20.852085208520862 61.446144614461446 21.842184218421835 61.446144614461446 C24.752475247524785 61.446144614461446 26.882688268826882 58.625862586258620 26.882688268826882 54.965496549654972 L26.882688268826882 58.625862586258620 z" />
</font>
</defs>
</svg>
